<?xml version="1.0" standalone="no"?>
<!DOCTYPE svg PUBLIC "-//W3C//DTD SVG 1.1//EN" "http://www.w3.org/Graphics/SVG/1.1/DTD/svg11.dtd" >
<svg>
<metadata>
Created by FontForge 20090914 at Sun Sep  9 15:59:41 2012
 By www-data
&#194;&#169; 2000-2001, Apostrophic Laboratories &#38; Graham Meade. All rights reserved. Visit www.apostrophiclab.com or email info@apostrophiclab.com for more info.
</metadata>
<defs>
<font id="Gilgongo" horiz-adv-x="728" >
  <font-face 
    font-family="Gilgongo"
    font-weight="400"
    font-stretch="normal"
    units-per-em="1000"
    panose-1="2 0 6 3 7 0 0 2 0 4"
    ascent="800"
    descent="-200"
    x-height="560.002"
    cap-height="789.999"
    bbox="-119 -305 1545 1084"
    underline-thickness="70"
    underline-position="-104"
    unicode-range="U+0020-U+FB02"
  />
<missing-glyph horiz-adv-x="500" 
 />
    <glyph glyph-name=".notdef" horiz-adv-x="500" 
 />
    <glyph glyph-name="space" unicode=" " horiz-adv-x="359" 
 />
    <glyph glyph-name="space" unicode="&#xa0;" horiz-adv-x="359" 
 />
    <glyph glyph-name="exclam" unicode="!" horiz-adv-x="282" 
d="M154 214l72 429c3.33301 20 5.83301 36.5 7.5 49.5s2.5 22.833 2.5 29.5c0 63.333 -31.667 95 -95 95s-95 -31.667 -95 -95c0 -6.66699 0.833008 -16.5 2.5 -29.5s4.16699 -29.5 7.5 -49.5l72 -429h26zM141 184c-28 0 -51.002 -9.66699 -69.002 -29s-27 -43 -27 -71
c0 -26.667 9.33301 -48.667 28 -66s41.334 -26 68.001 -26c12.667 0 24.834 2.33301 36.501 7s22 11.167 31 19.5s16 18 21 29s7.5 23.167 7.5 36.5c0 28 -9 51.667 -27 71s-41 29 -69 29z" />
    <glyph glyph-name="quotedbl" unicode="&#x22;" horiz-adv-x="358" 
d="M275 529l57.001 206c4.66699 16.667 4 33.667 -2 51c-5.33301 19.333 -15.333 32.333 -30 39s-31 7 -49 1c-18.667 -6 -31.334 -18.333 -38.001 -37c-7.33301 -18 -8.33301 -36.667 -3 -56l54 -207zM92.001 529l55.999 206.001c4.66699 16 4.33398 33 -0.999023 51
c-6 19.333 -16.167 32.333 -30.5 39s-30.5 7 -48.5 1s-31 -18.333 -39 -37c-6 -18.667 -6.66699 -37.334 -2 -56.001l53 -207z" />
    <glyph glyph-name="numbersign" unicode="#" horiz-adv-x="1216" 
d="M552 385h-3l-259 393h-245v-778h116v571h2l377 -571h127v732c0 16 -5.33301 29.667 -16 41s-24 17 -40 17c-16.667 0 -30.667 -5.5 -42 -16.5s-17 -24.833 -17 -41.5v-347zM943 710c-30 0.666992 -58.332 -5 -84.999 -17s-49.834 -28.333 -69.501 -49
s-35.167 -44.5 -46.5 -71.5s-17 -55.167 -17 -84.5c0 -30.667 5.66699 -59 17 -85s27 -48.5 47 -67.5s43.167 -33.833 69.5 -44.5s54.5 -16 84.5 -16s58.333 5.33301 85 16s50 25.5 70 44.5s36 41.5 48 67.5s18 54.333 18 85c0 29.333 -5.83301 57.666 -17.5 84.999
s-27.5 51.333 -47.5 72s-43.5 36.834 -70.5 48.501s-55.5 17.167 -85.5 16.5zM945.001 641c48 0 72.002 -49.333 72.002 -148c0 -99.333 -24 -149 -72 -149s-72 49.667 -72 149c0 20 0.833008 38.333 2.5 55s5.16699 31.334 10.5 44.001s12.666 23.167 21.999 31.5
s21.666 14.166 36.999 17.499zM1162 111v115h-429v-115h429z" />
    <glyph glyph-name="dollar" unicode="$" horiz-adv-x="653" 
d="M590 655c-45.333 76.667 -101.337 124.668 -168.004 144.001l13 82h-53l-12 -72c-6.66699 0.666992 -13.667 1.16699 -21 1.5s-14.666 0.5 -21.999 0.5c-40 0 -76.667 -6.33301 -110 -19s-61.666 -30.667 -84.999 -54s-41.5 -51.5 -54.5 -84.5s-19.5 -69.5 -19.5 -109.5
c0 -68 26 -123.333 78 -166c6 -4.66699 12.333 -9.33398 19 -14.001s15.334 -10 26.001 -16s24.334 -13.167 41.001 -21.5l64 -30.5l-32 -195c-37.333 15.333 -70.666 52 -99.999 110l-109 -65c44.667 -81.333 108.667 -131.333 192 -150l-17 -99h53l16 92
c45.333 -4.66699 89.166 -1 131.499 11s78.166 31 107.499 57c53.333 48 80 113 80 195c0 70 -26.667 126 -80 168c-6 4.66699 -12.333 9.16699 -19 13.5s-15.667 9.5 -27 15.5s-25.666 13 -42.999 21s-39.333 17.667 -66 29l32 199c32 -13.333 64.333 -49.333 97 -108z
M322.996 523.001c-40.667 24.667 -61 52.667 -61 84c0 67.333 30.333 101 91 101zM333.996 271.001c42 -24 63 -52.333 63 -85c0 -28 -8.33301 -50.333 -25 -67s-39 -26 -67 -28z" />
    <glyph glyph-name="percent" unicode="%" horiz-adv-x="1111" 
d="M845 424c-30 0.666992 -58.333 -5 -85 -17s-49.834 -28.333 -69.501 -49s-35.167 -44.5 -46.5 -71.5s-17 -55.167 -17 -84.5c0 -30.667 5.66699 -59 17 -85s26.833 -48.5 46.5 -67.5s42.834 -34 69.501 -45s55 -16.5 85 -16.5s58.333 5.5 85 16.5s50.167 26 70.5 45
s36.333 41.5 48 67.5s17.5 54.333 17.5 85c0 29.333 -5.83301 57.666 -17.5 84.999s-27.5 51.333 -47.5 72s-43.5 36.834 -70.5 48.501s-55.5 17.167 -85.5 16.5zM263 811c-30 0.666992 -58.332 -5 -84.999 -17s-49.834 -28.333 -69.501 -49s-35.167 -44.5 -46.5 -71.5
s-17 -55.167 -17 -84.5c0 -30.667 5.66699 -59 17 -85s27 -48.5 47 -67.5s43.167 -33.833 69.5 -44.5s54.5 -16 84.5 -16s58.333 5.33301 85 16s50 25.5 70 44.5s36 41.5 48 67.5s18 54.333 18 85c0 29.333 -5.83301 57.666 -17.5 84.999s-27.5 51.333 -47.5 72
s-43.5 36.834 -70.5 48.501s-55.5 17.167 -85.5 16.5zM317.001 -12l564 823h-88l-564 -823h88zM265.001 742c48 0 72.002 -49.333 72.002 -148c0 -99.333 -24 -149 -72 -149s-72 49.667 -72 149c0 20 0.833008 38.333 2.5 55s5.16699 31.334 10.5 44.001
s12.666 23.167 21.999 31.5s21.666 14.166 36.999 17.499zM847.003 354c48 0 72.002 -49.333 72.002 -148s-24 -148 -72 -148s-72 49.333 -72 148c0 20 0.833008 38.333 2.5 55s5.16699 31.334 10.5 44.001s12.666 23.167 21.999 31.5s21.666 14.166 36.999 17.499z" />
    <glyph glyph-name="ampersand" unicode="&#x26;" horiz-adv-x="784" 
d="M634 284l-141.002 209.004c14 18 26.667 37.167 38 57.5s19.5 41 24.5 62s6 42 3 63s-12.167 41.5 -27.5 61.5c-17.333 22 -38.333 38.167 -63 48.5s-50.667 15.666 -78 15.999s-54.333 -3.83398 -81 -12.501s-50.5 -21.167 -71.5 -37.5s-37.333 -36 -49 -59
s-16.167 -48.5 -13.5 -76.5c0.666992 -8 4 -18 10 -30s12.833 -24.5 20.5 -37.5s15.5 -25.5 23.5 -37.5l20 -30c-15.333 -10 -34.166 -23.167 -56.499 -39.5l-77.5 -59.5c-29.333 -33.333 -49 -66.5 -59 -99.5s-12.667 -64.5 -8 -94.5s15.834 -57.833 33.501 -83.5
s39.834 -47.834 66.501 -66.501s57 -33.334 91 -44.001s69.333 -16 106 -16c42.667 0 81.5 4.83301 116.5 14.5s68.833 26.167 101.5 49.5c28 20 53.5 45.167 76.5 75.5s42.167 64.333 57.5 102s26.666 78.167 33.999 121.5s9.33301 88 6 134h-79
c0.666992 -12 1 -23.667 1 -35v-33c0 -49.333 -8.33301 -90.333 -25 -123zM495.998 121.004c-30.667 -17.333 -63 -22.999 -97 -16.999s-63.667 21.667 -89 47c-15.333 16 -27.333 34 -36 54s-12.667 40.167 -12 60.5s6 39.666 16 57.999s26 33.833 48 46.5z
M358.998 686.005c2 3.33301 5.00195 6.66699 9.00195 10s8.66699 6.5 14 9.5s10.666 5.5 15.999 7.5s10 3 14 3c35.333 0 53 -20.667 53 -62c0 -11.333 -4.33301 -23.333 -13 -36s-18.334 -21 -29.001 -25z" />
    <glyph glyph-name="quotesingle" unicode="'" horiz-adv-x="173" 
d="M92 529l55.999 206.001c4.66699 16 4.33398 33 -0.999023 51c-6 19.333 -16.167 32.333 -30.5 39s-30.5 7 -48.5 1s-31 -18.333 -39 -37c-6 -18.667 -6.66699 -37.334 -2 -56.001l53 -207z" />
    <glyph glyph-name="parenleft" unicode="(" horiz-adv-x="391" 
d="M346 840c-35.333 -11.333 -67.334 -28.333 -96.001 -51s-54 -49.334 -76 -80.001s-40.833 -63.667 -56.5 -99s-28.834 -71 -39.501 -107c-22 -79.333 -33 -157 -33 -233c0 -117.333 23.333 -228.666 70 -333.999c56 -127.333 133 -206 231 -236v46
c-20 14.667 -37 34.167 -51 58.5s-26 51.5 -36 81.5s-18.167 62 -24.5 96s-11.166 68 -14.499 102s-5.66602 67 -6.99902 99s-2 61 -2 87c0 24 0.666992 52 2 84s3.83301 65.333 7.5 100s8.66699 69.667 15 105s14.5 68.333 24.5 99s22 58 36 82s30.667 42 50 54v46z" />
    <glyph glyph-name="parenright" unicode=")" horiz-adv-x="391" 
d="M45 -300c32 5.33301 61.833 18.501 89.5 39.501s52.667 46.833 75 77.5s42 65.167 59 103.5s31.167 77.666 42.5 117.999s20 80.5 26 120.5s9 77 9 111s-2.66699 70.333 -8 109s-13.333 77.5 -24 116.5s-24.334 77 -41.001 114s-36 71 -58 102s-47.167 57.667 -75.5 80
s-59.833 38.5 -94.5 48.5v-46c16.667 -11.333 31.334 -26.833 44.001 -46.5s23.834 -42 33.501 -67s17.834 -52 24.501 -81s12.167 -58 16.5 -87s7.66602 -57.5 9.99902 -85.5s4.16602 -53.333 5.49902 -76c2 -54 1.66699 -108.167 -1 -162.5s-7.5 -105.833 -14.5 -154.5
s-16.167 -93.334 -27.5 -134.001s-25 -74.667 -41 -102c-13.333 -23.333 -30 -40.666 -50 -51.999v-46z" />
    <glyph glyph-name="plus" unicode="+" horiz-adv-x="504" 
d="M478 281l0.00390625 115h-153v124c0 11.333 -1.83301 23 -5.5 35s-8.83398 22.833 -15.501 32.5s-14.834 17.667 -24.501 24s-20.834 9.5 -33.501 9.5s-23.834 -3.16699 -33.501 -9.5s-18 -14.333 -25 -24s-12.333 -20.5 -16 -32.5s-5.5 -23.667 -5.5 -35v-124h-142v-115
h143v-174h157v174h154z" />
    <glyph glyph-name="comma" unicode="," horiz-adv-x="247" 
d="M59 -159l131.001 200.998c8.66699 12.667 14 26.5 16 41.5s0.666992 28.833 -4 41.5s-12.5 23.167 -23.5 31.5s-25.167 12.5 -42.5 12.5c-11.333 0 -21.333 -2.66699 -30 -8s-16.334 -12.166 -23.001 -20.499s-12 -17.666 -16 -27.999s-6.33301 -20.5 -7 -30.5l-15 -241
h14z" />
    <glyph glyph-name="hyphen" unicode="-" horiz-adv-x="384" 
d="M339 281v115h-294v-115h294z" />
    <glyph glyph-name="hyphen" unicode="&#x2010;" horiz-adv-x="384" 
d="M339 281v115h-294v-115h294z" />
    <glyph glyph-name="period" unicode="." horiz-adv-x="282" 
d="M141 184c-28 0 -51.002 -9.66699 -69.002 -29s-27 -43 -27 -71c0 -26.667 9.33301 -48.667 28 -66s41.334 -26 68.001 -26c12.667 0 24.834 2.33301 36.501 7s22 11.167 31 19.5s16 18 21 29s7.5 23.167 7.5 36.5c0 28 -9 51.667 -27 71s-41 29 -69 29z" />
    <glyph glyph-name="slash" unicode="/" horiz-adv-x="706" 
d="M686 716c13.333 20.667 19.999 39.667 19.999 57c0 35.333 -19.333 53.333 -58 54c-32 0 -66.333 -11.333 -103 -34c-33.333 -20.667 -59.666 -45.667 -78.999 -75l-468 -718h216z" />
    <glyph glyph-name="zero" unicode="0" horiz-adv-x="748" 
d="M45 332c0 -90.667 23.333 -167.666 70 -230.999c55.333 -75.333 130 -113 224 -113c86.667 0 160.334 28.333 221.001 85c55.333 51.333 95 121 119 209c16 58 24 119.667 24 185c0 91.333 -23.333 168.666 -70 231.999c-54 74.667 -128.667 112 -224 112
c-86.667 0 -160.334 -28.333 -221.001 -85c-55.333 -51.333 -95 -121 -119 -209c-16 -58 -24 -119.667 -24 -185zM484 400.001c0 -74.667 -5.33301 -138.334 -16 -191.001c-16.667 -84.667 -48 -127 -94 -127c-74 0 -111 106 -111 318c0 74.667 5.33301 138.334 16 191.001
c16.667 84.667 48.334 127 95.001 127c67.333 0 103.666 -88 108.999 -264c0.666992 -11.333 1 -21.333 1 -30v-24z" />
    <glyph glyph-name="one" unicode="1" horiz-adv-x="376" 
d="M119 688v-688h211v799l-312 -49v-78z" />
    <glyph glyph-name="two" unicode="2" horiz-adv-x="661" 
d="M332 108l162.999 193.001c44 45.333 74.833 92.333 92.5 141s24.5 94.834 20.5 138.501s-18 83.334 -42 119.001s-55.333 63.5 -94 83.5s-83.5 30.667 -134.5 32s-105.833 -10.667 -164.5 -36c-21.333 -10.667 -40 -24 -56 -40s-29.333 -33.833 -40 -53.5
s-18.667 -40.834 -24 -63.501s-7.66602 -45.334 -6.99902 -68.001c0.666992 -15.333 6 -28.166 16 -38.499s22.667 -15.5 38 -15.5s28.333 5.16699 39 15.5s15.667 23.166 15 38.499c-2 18.667 -0.166992 37.334 5.5 56.001s14.167 35.5 25.5 50.5s25.333 27.167 42 36.5
s34.667 13.666 54 12.999c34.667 1.33301 61.5 -7.16699 80.5 -25.5s31 -40.833 36 -67.5s3.33301 -54.334 -5 -83.001s-22.833 -52.667 -43.5 -72l-304 -365v-97h596v108h-309z" />
    <glyph glyph-name="three" unicode="3" horiz-adv-x="626" 
d="M285 326l-150.003 -208.002c-9.33301 -12 -16.166 -25.5 -20.499 -40.5s-6.16602 -29.833 -5.49902 -44.5s4.16699 -28.667 10.5 -42s15.5 -25 27.5 -35c12 -9.33301 25.333 -16.5 40 -21.5s29.334 -7.16699 44.001 -6.5s28.667 4.33398 42 11.001s25 16.667 35 30
l226 313c26.667 36.667 40 75 40 115c0 57.333 -28.333 97 -85 119c-20 7.33301 -42 11 -66 11h-12l195 272h-534c-14 0 -26.167 -4.83301 -36.5 -14.5s-15.5 -21.5 -15.5 -35.5s4.83301 -26 14.5 -36s21.5 -15 35.5 -15h209l-189 -254h164c39.333 0 59 -18 59 -54
c0 -17.333 -9.33301 -38.666 -28 -63.999z" />
    <glyph glyph-name="four" unicode="4" horiz-adv-x="708" 
d="M688 169l-0.00292969 108h-100v522h-207l-361 -522v-108h356v-73c0 -14.667 2.83301 -28.5 8.5 -41.5s13.334 -24.333 23.001 -34s21 -17.334 34 -23.001s26.833 -8.5 41.5 -8.5s28.334 2.83301 41.001 8.5s23.834 13.334 33.501 23.001s17.167 21 22.5 34
s8 26.833 8 41.5v73h100zM375.997 277h-224l217 322h7v-322z" />
    <glyph glyph-name="five" unicode="5" horiz-adv-x="576" 
d="M256 698l220 0.000976562c14 0 25.833 4.83301 35.5 14.5s14.5 21.5 14.5 35.5s-4.83301 26 -14.5 36s-21.5 15 -35.5 15h-431v-338h206c28 0 42 -14.333 42 -43c0 -8 -3 -18 -9 -30l-177 -270c-13.333 -16 -21.666 -33.333 -24.999 -52
s-2.16602 -36.834 3.50098 -54.501s15 -33.334 28 -47.001s29.167 -23.5 48.5 -29.5c21.333 -7.33301 43.166 -8.33301 65.499 -3s39.166 17.333 50.499 36l212 333c20 30.667 34 62.334 42 95.001c2.66699 10 4 18.333 4 25c0 79.333 -45 119 -135 119h-145v158z" />
    <glyph glyph-name="six" unicode="6" horiz-adv-x="666" 
d="M620 290c0.666992 32.667 -5 61.4961 -17 86.4961s-28.167 46 -48.5 63s-44.333 29.833 -72 38.5s-56.834 13 -87.501 13c-10.667 0 -29 -3.66699 -55 -11l88 221c8 20.667 8.83301 40.834 2.5 60.501s-18.166 36.5 -35.499 50.5
c-15.333 12.667 -31.333 20.334 -48 23.001s-33 1.33398 -49 -3.99902s-30.5 -14.166 -43.5 -26.499s-22.833 -26.833 -29.5 -43.5l-151 -364c-11.333 -27.333 -19.5 -57.333 -24.5 -90s-5.83301 -65 -2.5 -97s11.5 -62.333 24.5 -91s31.833 -52.667 56.5 -72
c50.667 -39.333 117.667 -59 201 -59c42.667 0 82 7.66699 118 23s67 36.5 93 63.5s46 59 60 96s20.667 76.833 20 119.5zM407 237.996c0 -61.333 -11.667 -106.333 -35 -135c-10 -12 -23.667 -18 -41 -18c-51.333 0 -77 51 -77 153c0 16.667 1 34 3 52
s5.83301 34.5 11.5 49.5s13.5 27.167 23.5 36.5s23 14 39 14c50.667 0 76 -50.667 76 -152z" />
    <glyph glyph-name="seven" unicode="7" horiz-adv-x="598" 
d="M578 689v110h-558v-101h330l-270 -608c-6.66699 -14 -10 -29.667 -10 -47c0 -30 9.83301 -55.167 29.5 -75.5s44.5 -31.833 74.5 -34.5c46.667 -4.66699 79.667 15 99 59z" />
    <glyph glyph-name="eight" unicode="8" horiz-adv-x="682" 
d="M355 811c-34 1.33301 -67.334 -2.99805 -100.001 -12.998s-62 -25 -88 -45s-47 -44.333 -63 -73s-24 -61 -24 -97c0 -60 33 -114.333 99 -163c-89.333 -51.333 -134 -118.666 -134 -201.999c0 -38.667 7.5 -72.5 22.5 -101.5s35.167 -53 60.5 -72
s54.5 -33.167 87.5 -42.5s67.833 -14 104.5 -14c40.667 0 80 5.66699 118 17s71.833 28 101.5 50s53.334 49.333 71.001 82s26.5 70.667 26.5 114c0 86.667 -42.667 149.667 -128 189c12 6.66699 23.667 16.5 35 29.5s21.333 27 30 42s15.667 30.667 21 47s8 31.5 8 45.5
c0 34.667 -6.66699 65.167 -20 91.5s-31.333 48.166 -54 65.499s-49 30.166 -79 38.499s-61.667 12.166 -95 11.499zM270.999 232.002c0 59.333 11 102.667 33 130c9.33301 11.333 22.333 17 39 17c45.333 0 68 -49 68 -147c0 -98.667 -22.667 -148 -68 -148
c-48 0 -72 49.333 -72 148zM340.999 722.003c43.333 0 65 -45 65 -135c0 -90.667 -21.667 -136 -65 -136c-42.667 0 -64 45.333 -64 136c0 90 21.333 135 64 135z" />
    <glyph glyph-name="nine" unicode="9" horiz-adv-x="653" 
d="M545 337c18 34.667 32.666 70.834 43.999 108.501s17.5 74.5 18.5 110.5s-4.33301 70.333 -16 103s-31.5 61.667 -59.5 87c-48.667 43.333 -114.334 65 -197.001 65c-40 0 -77.667 -7.16699 -113 -21.5s-66.166 -34.166 -92.499 -59.499s-47 -55.333 -62 -90
s-22.5 -72.334 -22.5 -113.001c0 -30.667 6 -58.5 18 -83.5s28.333 -46.333 49 -64s44.334 -31.334 71.001 -41.001s55 -14.5 85 -14.5c5.33301 0 11.333 0.166992 18 0.5s13.667 0.833008 21 1.5l-158 -326h232zM248.999 575c1.33301 15.333 2.83203 31.667 4.49902 49
s4.83398 33.166 9.50098 47.499s11.5 26.333 20.5 36s21.5 14.5 37.5 14.5c14.667 0 26.667 -5.33301 36 -16s16.666 -23.667 21.999 -39s9 -31.5 11 -48.5s3 -31.5 3 -43.5c0 -15.333 -1 -31.666 -3 -48.999s-5.66699 -33.333 -11 -48s-12.666 -26.834 -21.999 -36.501
s-21.333 -14.5 -36 -14.5c-14 0 -25.833 5.33301 -35.5 16s-17.167 23.834 -22.5 39.501s-9 32 -11 49s-3 31.5 -3 43.5z" />
    <glyph glyph-name="colon" unicode=":" horiz-adv-x="282" 
d="M141 509c-28 0 -51.002 -9.66699 -69.002 -29s-27 -43 -27 -71c0 -26.667 9.33301 -48.667 28 -66s41.334 -26 68.001 -26c12.667 0 24.834 2.33301 36.501 7s22 11.167 31 19.5s16 18 21 29s7.5 23.167 7.5 36.5c0 28 -9 51.667 -27 71s-41 29 -69 29zM140.998 184
c-28 0 -51.002 -9.66699 -69.002 -29s-27 -43 -27 -71c0 -26.667 9.33301 -48.667 28 -66s41.334 -26 68.001 -26c12.667 0 24.834 2.33301 36.501 7s22 11.167 31 19.5s16 18 21 29s7.5 23.167 7.5 36.5c0 28 -9 51.667 -27 71s-41 29 -69 29z" />
    <glyph glyph-name="semicolon" unicode=";" horiz-adv-x="314" 
d="M63 -238l172 262c14.667 22.667 22 48 22 76s-8.5 50 -25.5 66s-39.5 24 -67.5 24s-51.333 -12.333 -70 -37c-17.333 -22.667 -27 -48 -29 -76l-20 -315h18zM173 509c-28 0 -51.002 -9.66699 -69.002 -29s-27 -43 -27 -71c0 -26.667 9.33301 -48.667 28 -66
s41.334 -26 68.001 -26c12.667 0 24.834 2.33301 36.501 7s22 11.167 31 19.5s16 18 21 29s7.5 23.167 7.5 36.5c0 28 -9 51.667 -27 71s-41 29 -69 29z" />
    <glyph glyph-name="less" unicode="&#x3c;" horiz-adv-x="368" 
d="M43 343l206.001 -57c13.333 -4 26.5 -4.83301 39.5 -2.5s24.167 7.16602 33.5 14.499s15.833 16.833 19.5 28.5s3.16699 24.5 -1.5 38.5c-6 20 -18.333 33.333 -37 40s-37.334 7.33398 -56.001 2.00098l-207 -52zM23.001 305l88.999 -194.001
c6 -12.667 14.167 -23.167 24.5 -31.5s21.333 -13.5 33 -15.5s23.167 -0.666992 34.5 4s21 13.334 29 26.001c10.667 18 12.334 36.167 5.00098 54.5s-19 32.833 -35 43.5l-173 123zM35 384.999l168.998 130.998c10.667 8.66699 18.834 19.167 24.501 31.5
s8.16699 24.333 7.5 36s-4.5 22.334 -11.5 32.001s-17.833 16.834 -32.5 21.501c-19.333 6.66699 -37.166 4.5 -53.499 -6.5s-27.833 -25.5 -34.5 -43.5l-79 -198z" />
    <glyph glyph-name="equal" unicode="=" horiz-adv-x="611" 
d="M566 433h-521v-115h521v115zM566 203h-521v-115h521v115z" />
    <glyph glyph-name="greater" unicode="&#x3e;" horiz-adv-x="368" 
d="M321 343l-206.001 -57c-13.333 -4 -26.5 -4.83301 -39.5 -2.5s-24.167 7.16602 -33.5 14.499s-15.833 16.833 -19.5 28.5s-3.16699 24.5 1.5 38.5c6 20 18.333 33.333 37 40s37.334 7.33398 56.001 2.00098l207 -52zM340.999 305l-88.999 -194.001
c-6 -12.667 -14.167 -23.167 -24.5 -31.5s-21.333 -13.5 -33 -15.5s-23.167 -0.666992 -34.5 4s-21 13.334 -29 26.001c-10.667 18 -12.334 36.167 -5.00098 54.5s19 32.833 35 43.5l173 123zM329 384.999l-169.002 130.999c-11.333 8.66699 -19.666 19.167 -24.999 31.5
s-7.66602 24.333 -6.99902 36s4.5 22.334 11.5 32.001s17.833 16.834 32.5 21.501c10 3.33301 19.5 4.33301 28.5 3s17.333 -4.5 25 -9.5s14.5 -11.333 20.5 -19s10.667 -15.834 14 -24.501l79 -198z" />
    <glyph glyph-name="question" unicode="?" horiz-adv-x="531" 
d="M336 632c-2 -20 -6.33496 -36.8379 -13.002 -50.5049s-15 -26.167 -25 -37.5s-21.833 -22.666 -35.5 -33.999s-28.834 -25 -45.501 -41c-28 -27.333 -42 -57.333 -42 -90c0 -2 0.333008 -4.33301 1 -7s2 -8.66699 4 -18l9 -44l17 -86h65
c2.66699 21.333 7.83398 43.833 15.501 67.5s23.167 44.834 46.5 63.501c26 20.667 49.833 38.834 71.5 54.501s40.5 32 56.5 49s28.333 36.333 37 58s13 49.167 13 82.5c0 48.667 -12.333 89.5 -37 122.5s-55.5 57.5 -92.5 73.5s-77.667 23.333 -122 22
s-85.833 -12 -124.5 -32c-39.333 -20 -68.666 -47.667 -87.999 -83s-28.333 -75 -27 -119c0.666992 -15.333 6.16699 -27.166 16.5 -35.499s21.5 -12.666 33.5 -12.999s23.167 3.5 33.5 11.5s15.5 20 15.5 36c-2 17.333 -0.5 34.5 4.5 51.5s12.667 32.333 23 46
s23 24.667 38 33s31.5 12.5 49.5 12.5c28.667 0 52.834 -8.5 72.501 -25.5s29.5 -39.5 29.5 -67.5zM238.998 183.995c-28 0 -51.002 -9.66504 -69.002 -28.998s-27 -43 -27 -71c0 -26.667 9.33301 -48.667 28 -66s41.334 -26 68.001 -26c12.667 0 24.834 2.33301 36.501 7
s21.834 11.167 30.501 19.5s15.667 18.166 21 29.499s8 23.333 8 36c0 13.333 -2.5 26 -7.5 38s-11.833 22.667 -20.5 32s-18.834 16.666 -30.501 21.999s-24.167 8 -37.5 8z" />
    <glyph glyph-name="at" unicode="@" horiz-adv-x="955" 
d="M594 81c40 0 79.5059 9.50098 118.506 28.501s73.833 45.333 104.5 79s55.5 73.167 74.5 118.5s28.5 94 28.5 146c0 55.333 -10 106.166 -30 152.499s-46.5 86 -79.5 119s-71.167 58.667 -114.5 77s-88.333 27.5 -135 27.5s-92 -6.5 -136 -19.5s-85.167 -31 -123.5 -54
s-73.666 -50.5 -105.999 -82.5s-60 -67.167 -83 -105.5s-40.833 -79.166 -53.5 -122.499s-19 -88 -19 -134c0 -56.667 11.167 -112.5 33.5 -167.5s53.666 -104 93.999 -147s89 -77.667 146 -104s120.167 -39.5 189.5 -39.5c48.667 0 94.334 5.83301 137.001 17.5
s80.334 25.5 113.001 41.5s59.834 32 81.501 48s36.167 28.333 43.5 37l-30 27c-4 -3.33301 -14.167 -11.333 -30.5 -24s-38.666 -26 -66.999 -40s-62.833 -26.667 -103.5 -38s-87.334 -17 -140.001 -17c-62 0 -117.167 12.333 -165.5 37s-89 56.5 -122 95.5
s-58 82.667 -75 131s-25.5 96.5 -25.5 144.5c0 38 5.83301 75.667 17.5 113s27.667 73 48 107s44.666 65.333 72.999 94s59 53.667 92 75s67.833 38 104.5 50s73.667 18 111 18c33.333 0 67.666 -7.16699 102.999 -21.5s67.666 -35 96.999 -62s53.333 -60.167 72 -99.5
s28 -84 28 -134c0 -48.667 -7.83301 -92.167 -23.5 -130.5s-35.167 -70.833 -58.5 -97.5s-48.333 -47 -75 -61s-50.667 -21.333 -72 -22l55 232c31.333 134.667 -46.334 202 -233.001 202c-34 0 -57.333 -4 -70 -12s-20.334 -17.333 -23.001 -28
c-1.33301 -7.33301 -1.33301 -13.5 0 -18.5s6.33301 -9.33301 15 -13s21.667 -6.33398 39 -8.00098s41.333 -2.5 72 -2.5c36 0 62.667 -5.5 80 -16.5s22.666 -24.167 15.999 -39.5c-13.333 2.66699 -24.833 4.83398 -34.5 6.50098s-19.834 2.5 -30.501 2.5
c-10 0 -21.167 -1.16699 -33.5 -3.5s-27.833 -5.5 -46.5 -9.5c-12.667 -4 -26.5 -9.83301 -41.5 -17.5s-29.333 -17.334 -43 -29.001s-25.834 -24.834 -36.501 -39.501s-18 -31 -22 -49c-6.66699 -28 -9.66699 -54.833 -9 -80.5s6 -47.334 16 -65.001s25.167 -30 45.5 -37
s46.833 -5.83301 79.5 3.5c15.333 4.66699 29 10.334 41 17.001s25.667 13 41 19c-2 -29.333 4.16699 -49.166 18.5 -59.499s35.166 -15.5 62.499 -15.5zM538.006 226.001c-10 -10.667 -20.332 -19.9961 -30.999 -27.9961s-19.334 -11.333 -26.001 -10
c-17.333 -5.33301 -32.833 -7.83301 -46.5 -7.5s-24.667 4.66602 -33 12.999s-13.333 21 -15 38s1.5 39.5 9.5 67.5c5.33301 16.667 12.333 32.667 21 48s20 27.666 34 36.999s31.333 14.666 52 15.999s45.667 -3.33398 75 -14.001z" />
    <glyph glyph-name="A" unicode="A" horiz-adv-x="711" 
d="M666 0l0.00195312 529c0 58.667 -15.667 109.5 -47 152.5s-74.333 74.833 -129 95.5c-38 14.667 -81.667 22 -131 22c-92.667 0 -166.334 -19.333 -221.001 -58c-62.667 -44 -93.334 -111 -92.001 -201v-494c0 -16.667 5.66699 -30.5 17 -41.5s25.333 -16.5 42 -16.5
c16 0 29.333 5.66699 40 17s16 25 16 41v255h288v-301h217zM448.002 400h-288v121c1.33301 101.333 48.333 152 141 152c99.333 0 148.333 -50.667 147 -152v-121z" />
    <glyph glyph-name="B" unicode="B" horiz-adv-x="739" 
d="M713 194c0 51.333 -19.6689 95.6641 -59.002 132.997c-35.333 32.667 -79.666 54.334 -132.999 65.001l1 3c46.667 4 85 22 115 54c30.667 32.667 46 72.334 46 119.001c0 70 -28 123.667 -84 161c-47.333 32.667 -108 49 -182 49h-300
c-19.333 0 -36.166 -7.16699 -50.499 -21.5s-21.5 -31.166 -21.5 -50.499v-706h417c104 0 179 32.667 225 98c17.333 25.333 26 57.333 26 96zM474.998 216.998c0 -38 -10.667 -67.333 -32 -88s-51 -31 -89 -31h-92v252h77c19.333 0 37.333 -3.33301 54 -10
s31 -15.834 43 -27.501s21.5 -25.667 28.5 -42s10.5 -34.166 10.5 -53.499zM455.998 559.998c0.666992 -74 -36.333 -111 -111 -111h-83v230h71c38 0 68.167 -10.333 90.5 -31s33.5 -50 33.5 -88h-1z" />
    <glyph glyph-name="C" unicode="C" horiz-adv-x="841" 
d="M487 84c-40.667 0.666992 -74.1719 10.332 -100.505 28.999s-47.166 42.667 -62.499 72s-26 62.166 -32 98.499s-9 73.166 -9 110.499c0 200 66 300 198 300c26 0 48.333 -2.83301 67 -8.5s35.667 -13.5 51 -23.5s29.833 -21.667 43.5 -35l43.5 -43
c17.333 -17.333 33.666 -26 48.999 -26c16.667 0 30.667 5.66699 42 17s17 25.333 17 42c0 10.667 -3.66699 22.334 -11 35.001c-22.667 28 -45.167 51.333 -67.5 70s-46.166 33.834 -71.499 45.501s-52.666 19.834 -81.999 24.501s-62.333 7 -99 7
c-60.667 0 -116.5 -10 -167.5 -30s-95 -48 -132 -84s-66 -79.167 -87 -129.5s-31.5 -105.833 -31.5 -166.5c0 -61.333 11.333 -117.833 34 -169.5s53.834 -96.167 93.501 -133.5s86 -66.666 139 -87.999s109.833 -32 170.5 -32c38 0 72.167 3.5 102.5 10.5
s58.333 17.833 84 32.5s49.334 33.667 71.001 57s42.5 51 62.5 83c6 8.66699 9 18.667 9 30c0 15.333 -5.5 28.333 -16.5 39s-24.167 16 -39.5 16c-20 0 -35.333 -8.33301 -46 -25c-14.667 -22.667 -29.667 -41.667 -45 -57s-31.666 -28 -48.999 -38
s-36.5 -17.333 -57.5 -22s-44.5 -7.33398 -70.5 -8.00098z" />
    <glyph glyph-name="D" unicode="D" horiz-adv-x="854" 
d="M809 374c0 121.333 -39.6699 218.999 -119.003 292.999s-179.666 111 -300.999 111h-272c-19.333 0 -36.166 -7.16699 -50.499 -21.5s-21.5 -31.166 -21.5 -50.499l1 -706h380c116.667 -0 209.334 33.333 278.001 100c70 66.667 105 158 105 274zM569.997 405.999
c0 -84 -15.999 -153.333 -47.999 -208c-40 -66.667 -99 -100 -177 -100h-81v581h73c54 0 100.167 -15 138.5 -45s65.166 -71 80.499 -123c10 -34 15 -69 15 -105h-1z" />
    <glyph glyph-name="E" unicode="E" horiz-adv-x="563" 
d="M45 706l1 -706.001h446c14.667 0 27.5 5.16699 38.5 15.5s16.167 22.833 15.5 37.5s-6.16699 27.167 -16.5 37.5s-22.833 15.5 -37.5 15.5h-227v241h261v105h-262v220h224c14.667 0 27.167 5.16699 37.5 15.5s15.5 22.833 15.5 37.5s-5.33301 27.167 -16 37.5
s-23.334 15.5 -38.001 15.5h-370c-19.333 0 -36.166 -7.16699 -50.499 -21.5s-21.5 -31.166 -21.5 -50.499z" />
    <glyph glyph-name="F" unicode="F" horiz-adv-x="560" 
d="M263 0l0.000976562 334h260v105h-261v233h224c14.667 0 27.167 5.16699 37.5 15.5s15.5 22.833 15.5 37.5s-5.33301 27.167 -16 37.5s-23.334 15.5 -38.001 15.5h-368c-20 0 -37 -7 -51 -21s-21 -31 -21 -51l1 -706h217z" />
    <glyph glyph-name="G" unicode="G" horiz-adv-x="904" 
d="M463 799c-122.667 0 -223 -37.999 -301 -113.999c-78 -75.333 -117 -174 -117 -296s39 -221 117 -297s178.333 -114 301 -114c150.667 0 282.667 43.667 396 131v235c0 14.667 -2.66699 28.5 -8 41.5s-12.833 24.333 -22.5 34s-21 17.167 -34 22.5s-26.833 8 -41.5 8
c-15.333 0 -29.333 -2.66699 -42 -8s-23.834 -12.833 -33.501 -22.5s-17.167 -21 -22.5 -34s-8 -26.833 -8 -41.5v-195c0 -23.333 -22 -41 -66 -53c-30 -8 -61.333 -12 -94 -12c-75.333 0 -130.333 35 -165 105c-26 52.667 -39 121 -39 205c0 138.667 34.333 233 103 283
c27.333 19.333 61 29 101 29c40.667 0 76.667 -10.667 108 -32c26 -18 51.333 -46 76 -84c10.667 -18 28 -27 52 -27c18 0 33 6 45 18s17.667 27 17 45c-1.33301 37.333 -29.666 73.666 -84.999 108.999c-46.667 29.333 -91.667 48 -135 56
c-30.667 5.33301 -64.667 8 -102 8z" />
    <glyph glyph-name="H" unicode="H" horiz-adv-x="762" 
d="M47 0h217.999v347h234l-1 -250c0 -15.333 2.83301 -29.666 8.5 -42.999s13.5 -24.833 23.5 -34.5s21.667 -17.334 35 -23.001s27.666 -8.5 42.999 -8.5c14.667 0 28.667 2.83301 42 8.5s24.833 13.5 34.5 23.5s17.334 21.5 23.001 34.5s8.5 27.167 8.5 42.5l1 681h-219
l1 -326h-234v228c0.666992 14 -2 27.667 -8 41s-14 25.333 -24 36s-21.667 19 -35 25s-27 8.66699 -41 8c-14 0.666992 -27.667 -2 -41 -8s-25.333 -14.333 -36 -25s-19.167 -22.667 -25.5 -36s-9.16602 -27 -8.49902 -41z" />
    <glyph glyph-name="I" unicode="I" horiz-adv-x="312" 
d="M46 680v-680.001h220v680c0.666992 14 -2 27.667 -8 41s-14.333 25.333 -25 36s-22.667 19 -36 25s-27 8.66699 -41 8c-14 0.666992 -27.833 -2 -41.5 -8s-25.667 -14.167 -36 -24.5s-18.5 -22.166 -24.5 -35.499s-8.66699 -27.333 -8 -42z" />
    <glyph glyph-name="J" unicode="J" horiz-adv-x="445" 
d="M400 256l-0.000976562 424c0 14.667 -3 28.667 -9 42s-14 25 -24 35s-21.667 18 -35 24s-27.333 9 -42 9c-15.333 0 -29.5 -3 -42.5 -9s-24.5 -14 -34.5 -24s-17.833 -21.667 -23.5 -35s-8.5 -27.333 -8.5 -42v-399c0 -58.667 -6.33301 -100.667 -19 -126
c-17.333 -36 -49.666 -54 -96.999 -54h-47v-106h84c198.667 0 298 87 298 261z" />
    <glyph glyph-name="K" unicode="K" horiz-adv-x="753" 
d="M46 680l0.999023 -680.001h218v680c0 14.667 -2.83301 28.667 -8.5 42s-13.334 25 -23.001 35s-21.167 18 -34.5 24s-27.333 9 -42 9c-14 0.666992 -27.833 -2 -41.5 -8s-25.667 -14.167 -36 -24.5s-18.666 -22.166 -24.999 -35.499s-9.16602 -27.333 -8.49902 -42z
M511.999 777.999l-239 -392l216 -386h244l-279 492l183 286h-125z" />
    <glyph glyph-name="L" unicode="L" horiz-adv-x="570" 
d="M265 106l-0.000976562 573.999c0 14.667 -2.83301 28.667 -8.5 42s-13.334 25 -23.001 35s-21.167 18 -34.5 24s-27.333 9 -42 9c-14 0.666992 -27.833 -2 -41.5 -8s-25.667 -14.167 -36 -24.5s-18.666 -22.166 -24.999 -35.499s-9.16602 -27.333 -8.49902 -42v-680h504
v106h-285z" />
    <glyph glyph-name="M" unicode="M" horiz-adv-x="869" 
d="M162 488l0.999023 -0.000976562l206 -488h27l205 493h5v-396c0 -15.333 2.83301 -29.5 8.5 -42.5s13.334 -24.5 23.001 -34.5s21 -17.833 34 -23.5s27.167 -8.5 42.5 -8.5c14.667 0 28.667 2.83301 42 8.5s25 13.334 35 23.001s18 21 24 34s9 27.167 9 42.5v682h-216
l-168 -408l-174 408h-221l1 -778h116v488z" />
    <glyph glyph-name="N" unicode="N" horiz-adv-x="712" 
d="M552 385h-3l-259 393h-245v-778h116v571h2l377 -571h127v732c0 16 -5.33301 29.667 -16 41s-24 17 -40 17c-16.667 0 -30.667 -5.5 -42 -16.5s-17 -24.833 -17 -41.5v-347z" />
    <glyph glyph-name="O" unicode="O" horiz-adv-x="918" 
d="M45 389c0 -116 39.667 -213.668 119 -293.001c79.333 -78.667 177.666 -118 294.999 -118s215.333 39.333 294 118c80 78.667 120 176.334 120 293.001s-40 214 -120 292c-78.667 78.667 -176.667 118 -294 118s-215.666 -39.333 -294.999 -118
c-79.333 -78 -119 -175.333 -119 -292zM283 388.999c0 78.667 10.668 146.333 32.001 203c28.667 76 76.667 114 144 114c85.333 0 140 -60.667 164 -182c8 -41.333 12 -86.333 12 -135c0 -82 -10 -149.333 -30 -202c-28.667 -76.667 -77.334 -115 -146.001 -115
c-85.333 0 -140 60.667 -164 182c-8 40 -12 85 -12 135z" />
    <glyph glyph-name="P" unicode="P" horiz-adv-x="717" 
d="M690 527c0 82.667 -27.999 146 -83.999 190c-50.667 40.667 -118.334 61 -203.001 61h-284c-20 0 -37.333 -7 -52 -21s-22 -31 -22 -51l1 -706h219v314h173c73.333 0 132.333 16.667 177 50c50 36.667 75 91 75 163zM464.001 540c0 -80 -41 -120 -123 -120h-76v252h67
c42 0 74.5 -11.5 97.5 -34.5s34.5 -55.5 34.5 -97.5z" />
    <glyph glyph-name="Q" unicode="Q" horiz-adv-x="919" 
d="M874 389c0 116.667 -40.0029 214 -120.003 292c-79.333 78.667 -177.666 118 -294.999 118s-215.666 -39.333 -294.999 -118c-79.333 -78 -119 -175.333 -119 -292c0 -96 28 -180.333 84 -253c56 -73.333 130 -121.333 222 -144v-123c0 -15.333 2.83301 -29.5 8.5 -42.5
s13.5 -24.5 23.5 -34.5s21.5 -17.833 34.5 -23.5s27.167 -8.5 42.5 -8.5c14.667 0 28.667 2.83301 42 8.5s25 13.5 35 23.5s17.833 21.5 23.5 34.5s8.5 27.167 8.5 42.5v124c92.667 25.333 166.334 73.666 221.001 144.999c56 72.667 84 156.334 84 251.001zM634.997 389
c0 -82 -9.99902 -149.334 -29.999 -202.001c-28.667 -76.667 -77.334 -115 -146.001 -115c-85.333 0 -140 60.667 -164 182c-8 40 -12 85 -12 135c0 78.667 10.667 146.334 32 203.001c28.667 76 76.667 114 144 114c85.333 0 140 -60.667 164 -182
c8 -41.333 12 -86.333 12 -135z" />
    <glyph glyph-name="R" unicode="R" horiz-adv-x="741" 
d="M717 0l-188.002 332.002c54 14 97.667 38.667 131 74c35.333 38.667 53 85 53 139c0 68 -29.667 124.667 -89 170c-55.333 42 -117.666 63 -186.999 63h-318c-20 0 -37.333 -7 -52 -21s-22 -31 -22 -51l1 -706h218v684h81c20.667 0 39.834 -3.5 57.501 -10.5
s32.667 -16.833 45 -29.5s22 -27.834 29 -45.501s10.5 -36.834 10.5 -57.501c0 -57.333 -17.667 -97 -53 -119c-28.667 -17.333 -73 -26 -133 -26h-24l193 -396h247z" />
    <glyph glyph-name="S" unicode="S" horiz-adv-x="640" 
d="M283 84c-46 0 -85.667 25.665 -119 76.998c-10.667 18 -24.334 27.333 -41.001 28s-31.667 -3.66602 -45 -12.999s-22.5 -22 -27.5 -38s-1.5 -32 10.5 -48c58 -74.667 142.333 -112 253 -112c40 0 77.167 5.83301 111.5 17.5s64 28.834 89 51.501s44.667 50 59 82
s21.5 68.667 21.5 110c0 39.333 -7.5 72.5 -22.5 99.5s-34.5 50.167 -58.5 69.5s-51.333 36 -82 50l-93 42c-60 26.667 -90 58.334 -90 95.001c0 66 30.333 99 91 99c50 0 93 -27 129 -81c10.667 -15.333 23.334 -23.333 38.001 -24s27.5 3 38.5 11s18.333 19.167 22 33.5
s-0.166016 29.166 -11.499 44.499c-60 80.667 -141 121 -243 121c-40 0 -76.333 -6.33301 -109 -19s-60.834 -30.5 -84.501 -53.5s-42 -50.667 -55 -83s-19.5 -68.5 -19.5 -108.5c0 -94 55.667 -167 167 -219l49 -22.5c19.333 -9 38 -19.333 56 -31s33.5 -24.5 46.5 -38.5
s19.5 -29 19.5 -45c0 -63.333 -33.333 -95 -100 -95z" />
    <glyph glyph-name="T" unicode="T" horiz-adv-x="681" 
d="M661 778h-587c-14.667 0 -27.167 -5.16699 -37.5 -15.5s-15.5 -22.833 -15.5 -37.5s5.16699 -27.167 15.5 -37.5s22.833 -15.5 37.5 -15.5h158v-672h219v672h210v106z" />
    <glyph glyph-name="U" unicode="U" horiz-adv-x="712" 
d="M45 248c0 -58.667 15.833 -109.5 47.5 -152.5s74.834 -74.833 129.501 -95.5c38 -14.667 81.667 -22 131 -22c91.333 0 164.666 19.667 219.999 59c62.667 44.667 94 111.667 94 201v540h-116v-521c0 -102 -47 -153 -141 -153c-48 0 -84.5 13.5 -109.5 40.5
s-37.5 64.5 -37.5 112.5v423c0 14.667 -2.83301 28.667 -8.5 42s-13.5 25 -23.5 35s-21.667 18 -35 24s-27.333 9 -42 9c-15.333 0 -29.5 -3 -42.5 -9s-24.5 -14 -34.5 -24s-17.833 -21.667 -23.5 -35s-8.5 -27.333 -8.5 -42v-432z" />
    <glyph glyph-name="V" unicode="V" horiz-adv-x="674" 
d="M653 778h-105.999l-151 -441l-165 390c-20.667 50.667 -54.667 76 -102 76c-14 0 -27.333 -2.5 -40 -7.5s-24 -12 -34 -21s-18.167 -19.5 -24.5 -31.5s-9.83301 -25 -10.5 -39c-1.33301 -14.667 1 -28.667 7 -42l269 -642c9.33301 -21.333 26.666 -32 51.999 -32
c22.667 0 39.667 10.667 51 32z" />
    <glyph glyph-name="W" unicode="W" horiz-adv-x="1008" 
d="M395 337l-164.999 390c-20.667 50.667 -54.667 76 -102 76c-14 0 -27.333 -2.5 -40 -7.5s-24 -12 -34 -21s-18.167 -19.5 -24.5 -31.5s-9.83301 -25 -10.5 -39c-1.33301 -14.667 1 -28.667 7 -42l269 -642c9.33301 -21.333 26.666 -32 51.999 -32
c22.667 0 39.667 10.667 51 32l102 312l131 -312c9.33301 -21.333 27 -32 53 -32s42.667 10.667 50 32l254 758h-106l-151 -441l-165 390c-20.667 50.667 -54.667 76 -102 76c-14 0 -27.333 -2.5 -40 -7.5s-24 -12 -34 -21s-18.167 -19.5 -24.5 -31.5
s-9.83301 -25 -10.5 -39c-1.33301 -14.667 1 -28.667 7 -42l80 -189z" />
    <glyph glyph-name="X" unicode="X" horiz-adv-x="662" 
d="M132 0l170.999 258.997l127 -222c22.667 -40.667 56 -61 100 -61c28.667 0 54.667 11 78 33c23.333 23.333 34 49.333 32 78c-0.666992 6.66699 -2.16699 13.334 -4.5 20.001s-5.16602 13.334 -8.49902 20.001l-191 336l204 315h-116l-145 -219l-106 186
c-23.333 42.667 -58 63.334 -104 62.001c-29.333 -1.33301 -54.333 -13 -75 -35c-20.667 -22.667 -30.667 -48 -30 -76c0.666992 -14 4.66699 -27.667 12 -41l170 -297l-226 -358h112z" />
    <glyph glyph-name="Y" unicode="Y" horiz-adv-x="657" 
d="M195 372v-371.998h218v386l226 392h-114l-162 -285l-136 241c-8 16.667 -19.167 30.667 -33.5 42s-29.833 19.166 -46.5 23.499s-33.667 4.66602 -51 0.999023s-33 -12.167 -47 -25.5c-16 -14.667 -25.833 -32.167 -29.5 -52.5s-0.5 -39.5 9.5 -57.5z" />
    <glyph glyph-name="Z" unicode="Z" horiz-adv-x="719" 
d="M330 106l324 572c4.66699 12 7 22 7 30c0 19.333 -6.83301 35.833 -20.5 49.5s-30.167 20.5 -49.5 20.5h-545v-106h359l-385 -672h624c14.667 0 27.167 5.16699 37.5 15.5s15.5 22.833 15.5 37.5s-5.16699 27.167 -15.5 37.5s-22.833 15.5 -37.5 15.5h-314z" />
    <glyph glyph-name="bracketleft" unicode="[" horiz-adv-x="321" 
d="M45 -104h256v69h-96v878h96v69h-256v-1016z" />
    <glyph glyph-name="backslash" unicode="\" horiz-adv-x="711" 
d="M21 715l471.999 -716h216l-468 718c-19.333 29.333 -45.666 54.333 -78.999 75c-36.667 22.667 -71 34 -103 34c-38.667 -0.666992 -58 -18.667 -58 -54c0 -17.333 6.66699 -36.333 20 -57z" />
    <glyph glyph-name="bracketright" unicode="]" horiz-adv-x="321" 
d="M276 926h-256v-69h96v-878h-96v-69h256v1016z" />
    <glyph glyph-name="asciicircum" unicode="^" horiz-adv-x="376" 
d="M22 537h72l96 168l97 -168h72l-115 257h-112z" />
    <glyph glyph-name="underscore" unicode="_" horiz-adv-x="401" 
d="M403 55h-403v-115h403v115z" />
    <glyph glyph-name="grave" unicode="`" horiz-adv-x="427" 
d="M322 608l-110 170h-112l150 -170h72z" />
    <glyph glyph-name="a" unicode="a" horiz-adv-x="668" 
d="M402 28l2.00195 -28h119c29.333 0 51.333 0.166992 66 0.5s24 0.833008 28 1.5s6 1.33398 6 2.00098v305c0 174 -99.333 261 -298 261h-224c-13.333 0 -24 -5.16699 -32 -15.5s-12 -22.5 -12 -36.5c0 -34.667 14.667 -52.667 44 -54h187c41.333 0 71.666 -14 90.999 -42
c-13.333 -2.66699 -26.333 -5 -39 -7s-25.834 -4.5 -39.501 -7.5l-43.5 -10c-15.333 -3.66699 -32.333 -8.16699 -51 -13.5c-22.667 -8.66699 -43.834 -18.167 -63.501 -28.5s-36.667 -22.333 -51 -36s-25.666 -29.5 -33.999 -47.5s-12.5 -38.333 -12.5 -61
c0 -36.667 7.5 -68.167 22.5 -94.5s34.833 -48 59.5 -65s53 -29.667 85 -38s65 -12.5 99 -12.5c18 0 33.667 2.16699 47 6.5s28 11.166 44 20.499zM405.002 379l-0.00195312 -263.002c-8 -14 -16.167 -23 -24.5 -27s-16.166 -5.33301 -23.499 -4
c-17.333 0 -33.5 3.33301 -48.5 10s-28 15.834 -39 27.501s-19.667 25 -26 40s-9.5 31.167 -9.5 48.5c0 27.333 2.66699 48.833 8 64.5s11 29.834 17 42.501c4.66699 8 10 14.833 16 20.5s14.333 10.667 25 15s24.334 8.5 41.001 12.5s38 8.33301 64 13z" />
    <glyph glyph-name="b" unicode="b" horiz-adv-x="730" 
d="M265 548l0.00195312 283.997h-220v-760c0 -19.333 7.16699 -36.166 21.5 -50.499s31.166 -21.5 50.499 -21.5h302c48.667 0 90 5.66699 124 17s61.5 28.333 82.5 51s36.167 50.834 45.5 84.501s14 72.834 14 117.501c-0.666992 52.667 -9.5 97.167 -26.5 133.5
s-40.833 65.5 -71.5 87.5s-66.834 37.5 -108.501 46.5s-87.5 12.5 -137.5 10.5h-76zM458.002 267.997h0.998047c-1.33301 -22 -3.66602 -43.833 -6.99902 -65.5s-9.16602 -40.834 -17.499 -57.501s-20.5 -30.167 -36.5 -40.5s-37 -15.5 -63 -15.5h-71v350h83
c25.333 0 45.333 -5 60 -15s25.667 -23.167 33 -39.5s12 -34.666 14 -54.999s3.33301 -40.833 4 -61.5z" />
    <glyph glyph-name="c" unicode="c" horiz-adv-x="671" 
d="M638 145c0 18.667 -6.83496 33.998 -20.502 45.998s-30.167 18 -49.5 18c-20 0 -37.667 -8.66699 -53 -26l-32.5 -33.5c-8.33301 -9 -16.833 -16.167 -25.5 -21.5s-18.5 -9 -29.5 -11s-25.833 -3 -44.5 -3c-22 0 -40.833 4.83301 -56.5 14.5s-28.5 22.334 -38.5 38.001
s-17.167 33.5 -21.5 53.5s-6.5 40.333 -6.5 61c0 20 2 39.667 6 59s10.667 36.5 20 51.5s21.5 27.167 36.5 36.5s33.5 14 55.5 14c14.667 0 27.834 -2 39.501 -6s22.5 -9.16699 32.5 -15.5s19.167 -13.166 27.5 -20.499l24.5 -21c18 -15.333 35.667 -23 53 -23
c18.667 0 35.167 6.33301 49.5 19s21.5 28.334 21.5 47.001c0 13.333 -4.33301 26.333 -13 39c-18 20 -35.833 36.833 -53.5 50.5s-36.167 24.5 -55.5 32.5s-40.166 13.667 -62.499 17s-47.5 5 -75.5 5c-43.333 0 -84.5 -6.5 -123.5 -19.5s-73.167 -32 -102.5 -57
s-52.5 -55.333 -69.5 -91s-25.5 -76.167 -25.5 -121.5c0 -44 9.5 -84.167 28.5 -120.5s44 -67.5 75 -93.5s66.5 -46.167 106.5 -60.5s81.333 -21.5 124 -21.5c56 0 103.5 10.167 142.5 30.5s74.167 53.166 105.5 98.499z" />
    <glyph glyph-name="d" unicode="d" horiz-adv-x="731" 
d="M466 548l-75.999 0.00488281c-50 2 -96.167 -1 -138.5 -9s-79 -22.833 -110 -44.5s-55 -50.834 -72 -87.501s-24.833 -82.334 -23.5 -137.001c0 -44.667 4.66699 -83.834 14 -117.501s24.5 -61.834 45.5 -84.501s48.5 -39.667 82.5 -51s75.333 -17 124 -17h302
c19.333 0 36.166 7.16699 50.499 21.5s21.5 31.166 21.5 50.499v759h-220v-283zM273.001 268.005c0.666992 20.667 1.99805 41.167 3.99805 61.5s6.66699 38.666 14 54.999s18.333 29.5 33 39.5s34.667 15 60 15h83v-350h-71c-26 0 -47 5.16699 -63 15.5
s-28.167 23.833 -36.5 40.5s-14.166 35.834 -17.499 57.501s-5.66602 43.5 -6.99902 65.5h1z" />
    <glyph glyph-name="e" unicode="e" horiz-adv-x="698" 
d="M263 241h399.005l3 5c4 50.667 -0.666992 96 -14 136s-33.5 73.5 -60.5 100.5s-59.667 47.667 -98 62s-80.5 21.5 -126.5 21.5c-43.333 0 -84.666 -6.5 -123.999 -19.5s-73.833 -32 -103.5 -57s-53 -55.333 -70 -91s-24.833 -76.167 -23.5 -121.5
c1.33301 -50 10.166 -93.5 26.499 -130.5s39.166 -67.667 68.499 -92s64.166 -42.5 104.499 -54.5s85.166 -18.333 134.499 -19c28.667 0 57.667 4.33301 87 13s55.666 20 78.999 34s42.333 29.5 57 46.5s21.667 33.5 21 49.5c-0.666992 18.667 -7.83398 34 -21.501 46
s-29.834 18 -48.501 18c-17.333 0 -30.5 -4 -39.5 -12l-28.5 -26c-10 -9.33301 -22.5 -17.833 -37.5 -25.5s-36.5 -11.167 -64.5 -10.5c-36 1.33301 -64.167 12.333 -84.5 33s-32.166 52 -35.499 94zM496.005 354h-226.001c16.667 58.667 52.667 88 108 88
c32 0 58.667 -7.66699 80 -23c12.667 -9.33301 21.334 -19 26.001 -29s8.66699 -22 12 -36z" />
    <glyph glyph-name="f" unicode="f" horiz-adv-x="508" 
d="M502 791l-113.999 0.00195312c-99.333 -1.33301 -173.5 -24.333 -222.5 -69s-74.167 -108.667 -75.5 -192h-70v-115h73v-415h216v415h115c31.333 0 47 18.333 47 55c0 15.333 -4.16699 29.166 -12.5 41.499s-19.833 18.5 -34.5 18.5h-115c1.33301 20 3.5 39.167 6.5 57.5
s7.16699 33.166 12.5 44.499c17.333 35.333 49.666 53 96.999 53h77v106z" />
    <glyph glyph-name="g" unicode="g" horiz-adv-x="729" 
d="M684 475c0 19.333 -7.16797 36.168 -21.501 50.501s-31.166 21.5 -50.499 21.5h-301c-48.667 0 -90 -6 -124 -18s-61.5 -29.5 -82.5 -52.5s-36.167 -51.167 -45.5 -84.5s-14 -71.666 -14 -114.999c0 -36 3.5 -70.833 10.5 -104.5s19.5 -63.334 37.5 -89.001
s42.333 -46 73 -61s69.667 -22.5 117 -22.5l184 -1c0 -22 -0.333008 -39.5 -1 -52.5s-0.666992 -23.5 0 -31.5c0.666992 -28.667 -1.66602 -50.667 -6.99902 -66s-13 -26.333 -23 -33s-22.167 -10.334 -36.5 -11.001s-29.833 -1 -46.5 -1h-227v-106h264
c105.333 0 180.666 22 225.999 66s68 119 68 225v486zM464.999 108.002c-29.333 0 -53.1689 0.166016 -71.502 0.499023s-33.166 1.33301 -44.499 3s-20.5 4.33398 -27.5 8.00098s-13.833 8.5 -20.5 14.5c-4.66699 4 -9 12.5 -13 25.5s-7.33301 27.167 -10 42.5
s-4.66699 30.166 -6 44.499s-1.66602 25.166 -0.999023 32.499c0 9.33301 0.5 21.333 1.5 36s2.83301 29.334 5.5 44.001s6.16699 28.334 10.5 41.001s9.5 21.667 15.5 27c22.667 20.667 53 31 91 31h70v-350z" />
    <glyph glyph-name="h" unicode="h" 
d="M263 548l0.000976562 284.001h-218v-832l217 1v438c29.333 0 52.333 -0.166992 69 -0.5s30.167 -1.33301 40.5 -3s19.333 -4.33398 27 -8.00098s17.167 -8.5 28.5 -14.5c9.33301 -6 16.5 -15.833 21.5 -29.5s8.66699 -28 11 -43s3.66602 -29 3.99902 -42
s0.5 -21.833 0.5 -26.5v-272h219v270c0 19.333 -0.166992 36.833 -0.5 52.5s-2 30.5 -5 44.5s-7.5 27.5 -13.5 40.5s-14.667 26.5 -26 40.5c-20.667 25.333 -41.5 44.833 -62.5 58.5s-43.5 23.5 -67.5 29.5s-49.833 9.5 -77.5 10.5s-58.167 1.5 -91.5 1.5h-76z" />
    <glyph glyph-name="i" unicode="i" horiz-adv-x="311" 
d="M265 450c0.666992 14.667 -2 28.667 -8 42s-14.333 25 -25 35s-22.667 18 -36 24s-27 9 -41 9c-14.667 0 -28.667 -3 -42 -9s-25 -14 -35 -24s-18 -21.667 -24 -35s-9 -27.333 -9 -42v-448h220v448zM249 731c0 28 -9.00195 51.667 -27.002 71s-41 29 -69 29
s-51 -9.66699 -69 -29s-27 -43 -27 -71c0 -26.667 9.33301 -48.667 28 -66s41.334 -26 68.001 -26c12.667 0 24.834 2.33301 36.501 7s22 11.167 31 19.5s16 18 21 29s7.5 23.167 7.5 36.5z" />
    <glyph glyph-name="j" unicode="j" horiz-adv-x="308" 
d="M263 23l-0.000976562 423.999c0 14.667 -3 28.667 -9 42s-14 25 -24 35s-21.667 18 -35 24s-27.333 9 -42 9c-15.333 0 -29.5 -3 -42.5 -9s-24.5 -14 -34.5 -24s-17.833 -21.667 -23.5 -35s-8.5 -27.333 -8.5 -42v-399c0 -59.333 -6.33301 -101.666 -19 -126.999
c-17.333 -35.333 -49.666 -53 -96.999 -53h-47v-106h84c198.667 0 298 87 298 261zM150.999 830.999c-28 0 -51.002 -9.66699 -69.002 -29s-27 -43 -27 -71c0 -26.667 9.33301 -48.667 28 -66s41.334 -26 68.001 -26c12.667 0 24.834 2.33301 36.501 7s22 11.167 31 19.5
s16 18 21 29s7.5 23.167 7.5 36.5c0 28 -9 51.667 -27 71s-41 29 -69 29z" />
    <glyph glyph-name="k" unicode="k" horiz-adv-x="643" 
d="M265 721c0 14.667 -3 28.667 -9 42s-14 25 -24 35s-21.667 18 -35 24s-27.333 9 -42 9s-28.667 -3 -42 -9s-25 -14 -35 -24s-17.833 -21.667 -23.5 -35s-8.5 -27.333 -8.5 -42v-721h217zM461 558l-196 -281l177 -277h201l-229 353l150 205h-103z" />
    <glyph glyph-name="l" unicode="l" horiz-adv-x="310" 
d="M263 723c0 14.667 -2.83301 28.667 -8.5 42s-13.5 25 -23.5 35s-21.5 18 -34.5 24s-26.833 9 -41.5 9s-28.667 -3 -42 -9s-25 -14 -35 -24s-18 -21.667 -24 -35s-9 -27.333 -9 -42l1 -723h217v723z" />
    <glyph glyph-name="m" unicode="m" horiz-adv-x="1128" 
d="M263 571l-218.001 -0.00585938v-571l217 1v398c9.33301 10.667 19.833 23.334 31.5 38.001s25.167 25 40.5 31c23.333 8 43.166 7.66699 59.499 -1s29.666 -22.667 39.999 -42s18 -42.5 23 -69.5s7.5 -54.833 7.5 -83.5l-1 -205c0.666992 -13.333 4.66699 -24.333 12 -33
s16.5 -15.834 27.5 -21.501s23.167 -9.5 36.5 -11.5s26 -3 38 -3c28.667 0 53.167 5.83301 73.5 17.5s30.833 28.834 31.5 51.501v203v43c0 12.667 -0.333008 24 -1 34s-2 19.167 -4 27.5s-4.66699 16.5 -8 24.5c10 16 24.167 30.333 42.5 43s36.833 19 55.5 19
c12.667 0 25.167 -3.16699 37.5 -9.5s23.333 -14.666 33 -24.999s17.167 -22.5 22.5 -36.5s7.33301 -28.333 6 -43c0 -11.333 0.166992 -22.166 0.5 -32.499s0.5 -24.5 0.5 -42.5s-0.166992 -42.167 -0.5 -72.5s-0.5 -71.166 -0.5 -122.499
c0.666992 -13.333 4.5 -24.833 11.5 -34.5s15.833 -17.667 26.5 -24s22.5 -11 35.5 -14s25.833 -4.5 38.5 -4.5s25.167 1.5 37.5 4.5s23.333 7.66699 33 14s17.667 14.333 24 24s9.83301 21.167 10.5 34.5v154c0 39.333 -0.333008 70.333 -1 93s-1.5 38.834 -2.5 48.501
s-2.5 17.167 -4.5 22.5c-9.33301 22.667 -20.166 44.167 -32.499 64.5s-27.666 38.333 -45.999 54s-40 28.834 -65 39.501s-54.5 18 -88.5 22c-25.333 3.33301 -50.166 2.16602 -74.499 -3.50098s-47 -13.667 -68 -24s-39.333 -21.833 -55 -34.5s-27.167 -24 -34.5 -34
c-16.667 16.667 -34 32.334 -52 47.001s-37.833 26.667 -59.5 36s-45.667 14.833 -72 16.5s-55.833 -1.83301 -88.5 -10.5c-21.333 -8.66699 -38.333 -20.167 -51 -34.5s-21 -24.833 -25 -31.5v69z" />
    <glyph glyph-name="n" unicode="n" 
d="M262 571h-216.998v-571l217 1v418c7.33301 12.667 16.5 22.334 27.5 29.001s21.833 11.5 32.5 14.5s20.167 4.66699 28.5 5s13.166 0.5 14.499 0.5c20 -0.666992 36.5 -4.5 49.5 -11.5s23.167 -18 30.5 -33s12.5 -34.833 15.5 -59.5s4.5 -55.334 4.5 -92.001v-201
c0 -13.333 3.5 -24.666 10.5 -33.999s15.667 -16.833 26 -22.5s22 -9.83398 35 -12.501s25.5 -4 37.5 -4s24.5 1.33301 37.5 4s24.667 6.83398 35 12.501s18.833 13.167 25.5 22.5s10 20.666 10 33.999v119v79c0 20.667 -0.166992 36.667 -0.5 48s-0.666016 20 -0.999023 26
s-0.666016 10.333 -0.999023 13s-0.833008 5.66699 -1.5 9c-6 32.667 -15.667 62 -29 88s-31.5 48 -54.5 66s-51.5 32 -85.5 42s-74.333 15.667 -121 17c-5.33301 0 -12.833 -0.666992 -22.5 -2s-20.334 -3.83301 -32.001 -7.5s-23.834 -8.5 -36.501 -14.5
s-24.334 -14 -35.001 -24v41z" />
    <glyph glyph-name="o" unicode="o" horiz-adv-x="709" 
d="M354 -13c42.667 -1.33301 83.833 5.33398 123.5 20.001s74.834 35.334 105.501 62.001s55 58.5 73 95.5s27 77.167 27 120.5c0 44.667 -9 85.334 -27 122.001s-42.167 68 -72.5 94s-65.333 46.167 -105 60.5s-81.167 21.5 -124.5 21.5s-84.833 -7.16699 -124.5 -21.5
s-74.667 -34.5 -105 -60.5s-54.5 -57.333 -72.5 -94s-27 -77.334 -27 -122.001c0 -43.333 9 -83.5 27 -120.5s42.333 -68.833 73 -95.5s65.667 -47.334 105 -62.001s80.666 -21.334 123.999 -20.001zM353.999 473c13.333 0 26.6689 -2.5 40.002 -7.5
s25.166 -14.5 35.499 -28.5s18.833 -33.167 25.5 -57.5s10 -55.833 10 -94.5c0 -62 -9.83301 -108.833 -29.5 -140.5s-46.834 -47.5 -81.501 -47.5s-61.834 15.833 -81.501 47.5s-29.5 78.5 -29.5 140.5s9.83301 108.833 29.5 140.5s46.834 47.5 81.501 47.5z" />
    <glyph glyph-name="p" unicode="p" horiz-adv-x="719" 
d="M263 28h75.999c46.667 0 90.834 4.66699 132.501 14s78.167 24.833 109.5 46.5s56.166 50.167 74.499 85.5s27.5 79.333 27.5 132c0 43.333 -4.66699 81.666 -14 114.999s-24.5 61.5 -45.5 84.5s-48.5 40.5 -82.5 52.5s-75.333 18 -124 18h-300
c-19.333 0 -36.166 -7.16699 -50.499 -21.5s-21.5 -31.166 -21.5 -50.499v-806h218v330zM462.999 308l-1.00098 0.000976562c0.666992 -20.667 -0.333008 -41.167 -3 -61.5s-8.16699 -38.666 -16.5 -54.999s-20.333 -29.5 -36 -39.5s-36.167 -15 -61.5 -15h-83v350h71
c26 0 47.5 -5 64.5 -15s30.333 -23.333 40 -40s16.334 -35.834 20.001 -57.501s5.5 -43.834 5.5 -66.501z" />
    <glyph glyph-name="q" unicode="q" horiz-adv-x="720" 
d="M457 19l-0.000976562 -320h218v796c0 19.333 -7.16699 36.166 -21.5 50.499s-31.166 21.5 -50.499 21.5h-300c-48.667 0 -90 -6 -124 -18s-61.5 -29.5 -82.5 -52.5s-36.167 -51.167 -45.5 -84.5s-14 -71.666 -14 -114.999c0 -52.667 9.16699 -96.667 27.5 -132
s43.166 -63.833 74.499 -85.5s67.833 -37.167 109.5 -46.5s85.834 -14 132.501 -14h76zM256.999 299c0 22.667 1.83203 44.833 5.49902 66.5s10.334 40.834 20.001 57.501s23 30 40 40s38.5 15 64.5 15h71v-350h-83c-25.333 0 -45.833 5 -61.5 15s-27.667 23.167 -36 39.5
s-13.833 34.666 -16.5 54.999s-3.66699 40.833 -3 61.5h-1z" />
    <glyph glyph-name="r" unicode="r" horiz-adv-x="572" 
d="M280 428c14 15.333 35.6689 23.001 65.002 23.001c14 0 26.667 -3.83301 38 -11.5s22.5 -16.167 33.5 -25.5s22 -17.833 33 -25.5s23.167 -11.5 36.5 -11.5c11.333 0 22.166 3 32.499 9s19.333 13.667 27 23s13.667 19.666 18 30.999s6.5 22.333 6.5 33
c0 13.333 -4.5 25.166 -13.5 35.499s-20.667 19.333 -35 27s-30.333 14 -48 19s-35 8.83301 -52 11.5s-33 4.16699 -48 4.5s-26.833 -0.5 -35.5 -2.5c-14 -3.33301 -27.5 -8 -40.5 -14s-25.167 -14.667 -36.5 -26v42h-216v-570l216 1v368
c3.33301 28.667 9.66602 48.334 18.999 59.001z" />
    <glyph glyph-name="s" unicode="s" horiz-adv-x="533" 
d="M262 -12c30 -0.666992 59.0029 2.83203 87.0029 10.499s53 19.5 75 35.5s39.667 35.833 53 59.5s20 51.167 20 82.5c0 72 -48 126 -144 162c-12.667 4.66699 -26.5 9.5 -41.5 14.5s-28.833 10.5 -41.5 16.5s-23.334 12.5 -32.001 19.5s-13 15.167 -13 24.5
c0 34 19.333 51.333 58 52c14.667 0 28.334 -3.5 41.001 -10.5s24.667 -15 36 -24l31.5 -24.5c9.66699 -7.33301 18.834 -11 27.501 -11c15.333 0 28.5 4.5 39.5 13.5s16.833 21.167 17.5 36.5c0.666992 16 -6.33301 31.333 -21 46s-32.834 27.334 -54.501 38.001
s-45.167 19.167 -70.5 25.5s-48 9.16602 -68 8.49902c-30 -0.666992 -58.5 -5.16699 -85.5 -13.5s-50.833 -20.333 -71.5 -36s-37.167 -35.167 -49.5 -58.5s-18.5 -50.666 -18.5 -81.999c0 -68.667 46.667 -121.667 140 -159c9.33301 -4 21.166 -8.5 35.499 -13.5
s28.166 -10.667 41.499 -17s24.666 -13.5 33.999 -21.5s14 -16.667 14 -26c0 -32.667 -21.333 -49 -64 -49c-10 0 -21 3.66699 -33 11s-24 15.333 -36 24s-23.667 16.667 -35 24s-21.333 11 -30 11c-11.333 0 -22 -2.83301 -32 -8.5s-17.833 -13 -23.5 -22
s-8.5 -18.833 -8.5 -29.5c0 -10 4.33301 -20 13 -30c48 -52.667 117.667 -79 209 -79z" />
    <glyph glyph-name="t" unicode="t" horiz-adv-x="471" 
d="M424 534h-118.001v150c0 14.667 -3 28.667 -9 42s-14 25 -24 35s-21.5 18 -34.5 24s-26.833 9 -41.5 9c-15.333 0 -29.666 -2.83301 -42.999 -8.5s-25 -13.5 -35 -23.5s-17.833 -21.667 -23.5 -35s-8.5 -27.666 -8.5 -42.999v-150h-67v-115h68l1 -419l220 1v418h115
c31.333 0 47 18.333 47 55c0 15.333 -4.16699 29.166 -12.5 41.499s-19.833 18.5 -34.5 18.5z" />
    <glyph glyph-name="u" unicode="u" 
d="M466 0l217.001 0.000976562v571h-217v-422c-7.33301 -12.667 -16.5 -22.334 -27.5 -29.001s-21.833 -11.5 -32.5 -14.5s-20.167 -4.66699 -28.5 -5s-13.166 -0.5 -14.499 -0.5c-20 0.666992 -36.5 4.5 -49.5 11.5s-23.167 18 -30.5 33s-12.5 34.833 -15.5 59.5
s-4.5 55.334 -4.5 92.001v203c0 13.333 -3.5 24.666 -10.5 33.999s-15.667 16.833 -26 22.5s-22 9.83398 -35 12.501s-25.5 4 -37.5 4s-24.5 -1.33301 -37.5 -4s-24.667 -6.83398 -35 -12.501s-18.833 -13.167 -25.5 -22.5s-10 -20.666 -10 -33.999v-119v-79
c0 -20.667 0.166992 -36.834 0.5 -48.501s0.666016 -20.667 0.999023 -27s0.666016 -10.833 0.999023 -13.5s0.833008 -5.66699 1.5 -9c6 -32.667 15.667 -62 29 -88s31.5 -48 54.5 -66s51.5 -32.167 85.5 -42.5s74.333 -15.833 121 -16.5c5.33301 0 12.833 0.666992 22.5 2
s20.334 3.83301 32.001 7.5s23.667 8.5 36 14.5s24.166 14 35.499 24v-38z" />
    <glyph glyph-name="v" unicode="v" horiz-adv-x="545" 
d="M545 563l-90.998 0.000976562l-129 -314l-141 278c-6.66699 13.333 -15.834 24.5 -27.501 33.5s-24.167 15.167 -37.5 18.5s-27.333 3.66602 -42 0.999023s-28.334 -8.66699 -41.001 -18c-14 -9.33301 -24.167 -20.833 -30.5 -34.5s-5.16602 -29.167 3.50098 -46.5
l230 -457c8 -15.333 23 -23 45 -23c19.333 0 33.666 7.66699 42.999 23z" />
    <glyph glyph-name="w" unicode="w" horiz-adv-x="879" 
d="M651 31l228.004 536.001h-123l-122 -282l-129 239c-8 16 -18.833 28.833 -32.5 38.5s-28.334 16 -44.001 19s-31.834 2.83301 -48.501 -0.5s-32.334 -10 -47.001 -20c-17.333 -11.333 -28.833 -25.5 -34.5 -42.5s-3.83398 -34.167 5.49902 -51.5l65 -123l-25 -59
l-129 239c-8.66699 16 -19.834 28.833 -33.501 38.5s-28.667 16 -45 19s-33 2.66699 -50 -1s-32.833 -10.834 -47.5 -21.501c-16.667 -12 -27.334 -26 -32.001 -42s-2.66699 -32.667 6 -50l233 -437c10 -20 29 -30 57 -30c26 0 45 10 57 30l77 185l99 -185
c10.667 -20 30.334 -30 59.001 -30s47.334 10.333 56.001 31z" />
    <glyph glyph-name="x" unicode="x" horiz-adv-x="583" 
d="M564 558l-133 -0.00195312l-112 -144l-90 111c-10 12 -21.833 21.833 -35.5 29.5s-28 12.5 -43 14.5s-30.333 1.33301 -46 -2s-29.834 -9.66602 -42.501 -18.999c-18.667 -12.667 -30.167 -28.5 -34.5 -47.5s0.166992 -37.167 13.5 -54.5l154 -190l-193 -257l129 1
l134 171l109 -135c10 -12 22.333 -21.667 37 -29s29.834 -12 45.501 -14s31.334 -1 47.001 3s30.167 11.333 43.5 22c17.333 13.333 27.666 28.833 30.999 46.5s-2 34.834 -16 51.501l-174 215z" />
    <glyph glyph-name="y" unicode="y" horiz-adv-x="729" 
d="M466 109l-83.0029 -0.00195312c-31.333 0 -56.833 6.66699 -76.5 20s-30.167 38 -31.5 74c-1.33301 44 -1.66602 88.667 -0.999023 134s0.666992 91.333 0 138c0 14 -3.5 26.5 -10.5 37.5s-15.833 20.333 -26.5 28s-22.667 13.334 -36 17.001s-26.333 5.5 -39 5.5
c-13.333 0 -27 -1.83301 -41 -5.5s-26.667 -9 -38 -16s-20.5 -15.833 -27.5 -26.5s-10.5 -23.334 -10.5 -38.001v-324c0.666992 -26 7.83398 -48.5 21.501 -67.5s34.5 -34.833 62.5 -47.5s63.5 -22.167 106.5 -28.5s94.167 -9.5 153.5 -9.5h76
c2.66699 -24 3.33398 -47.667 2.00098 -71s-6.16602 -44.166 -14.499 -62.499s-20.5 -33.166 -36.5 -44.499s-37 -17 -63 -17h-91v-106h128c105.333 0 180.666 22 225.999 66s68 119 68 225v570h-218v-451z" />
    <glyph glyph-name="z" unicode="z" horiz-adv-x="552" 
d="M289 107l219.001 381c2 4.66699 3.33301 8.83398 4 12.501s1 6.83398 1 9.50098c0 14 -4.83301 25.833 -14.5 35.5s-21.5 14.5 -35.5 14.5h-437v-108h248l-267 -452h494c5.33301 0 11 1.83301 17 5.5s11.667 8.16699 17 13.5s9.66602 11 12.999 17s5 11.667 5 17
s-0.166992 11.166 -0.5 17.499s-1.83301 12.166 -4.5 17.499s-6.5 9.83301 -11.5 13.5s-12.167 5.5 -21.5 5.5h-226z" />
    <glyph glyph-name="braceleft" unicode="{" horiz-adv-x="356" 
d="M240 843h96v69h-256v-408h-80v-115h80v-493h256v69h-96v878z" />
    <glyph glyph-name="bar" unicode="|" horiz-adv-x="226" 
d="M193 912h-160v-1016h161z" />
    <glyph glyph-name="braceright" unicode="}" horiz-adv-x="381" 
d="M381 381v115h-105v430h-256v-69h96v-878h-96v-69h256v471h105z" />
    <glyph glyph-name="asciitilde" unicode="~" horiz-adv-x="405" 
d="M53 569c2.66699 7.33301 6.5 14.9951 11.5 22.9951s10.833 15 17.5 21s14.167 10.5 22.5 13.5s17.5 3.16699 27.5 0.5l14 -8.5l33.5 -19.5c13 -7.33301 26.667 -14.166 41 -20.499s26.833 -10.166 37.5 -11.499c39.333 -5.33301 71.5 3.83398 96.5 27.501
s40.167 58.834 45.5 105.501l-37 5l-15 -26.5c-4.66699 -8.33301 -10 -15.5 -16 -21.5s-13 -10.167 -21 -12.5s-17.333 -2.16602 -28 0.500977c-2.66699 0.666992 -10.167 4.5 -22.5 11.5l-41 22.5l-42 22c-13 6.66699 -21.167 10 -24.5 10c-68 10 -116.333 -35 -145 -135z
" />
    <glyph glyph-name="exclamdown" unicode="&#xa1;" horiz-adv-x="240" 
d="M107 448l-72 -429c-3.33301 -20 -5.83301 -36.5 -7.5 -49.5s-2.5 -22.833 -2.5 -29.5c0 -63.333 31.667 -95 95 -95s95 31.667 95 95c0 6.66699 -0.833008 16.5 -2.5 29.5s-4.16699 29.5 -7.5 49.5l-72 429h-26zM120 478c28 0 51 9.66602 69 28.999s27 43 27 71
c0 26.667 -9.33301 48.667 -28 66s-41.334 26 -68.001 26c-13.333 0 -25.666 -2.33301 -36.999 -7s-21.5 -11.167 -30.5 -19.5s-16 -18.166 -21 -29.499s-7.5 -23.333 -7.5 -36c0 -28 9 -51.667 27 -71s41 -29 69 -29z" />
    <glyph glyph-name="cent" unicode="&#xa2;" horiz-adv-x="671" 
d="M472 810l-53 0.00195312l-17 -106c-5.33301 0.666992 -11.333 1 -18 1h-18c-90.667 0 -165.667 -25.333 -225 -76c-64 -53.333 -96 -124.333 -96 -213c0 -86.667 34.667 -158.667 104 -216c47.333 -39.333 101.666 -64 162.999 -74l-19 -126h53l18 120h15
c56 0 103.5 10.167 142.5 30.5s74.167 53.166 105.5 98.499c7.33301 11.333 11 23 11 35c0 18.667 -6.83301 34 -20.5 46s-30.167 18 -49.5 18c-20 0 -37.667 -8.66699 -53 -26l-32.5 -33.5c-8.33301 -9 -16.666 -16.167 -24.999 -21.5s-18 -9 -29 -11s-25.5 -3 -43.5 -3
l49 315c13.333 -6.66699 25.5 -14.5 36.5 -23.5l31.5 -26.5c18 -15.333 35.667 -23 53 -23c18.667 0 35.167 6.33301 49.5 19s21.5 28.334 21.5 47.001c0 13.333 -4.33301 26.333 -13 39c-34 39.333 -70.667 67 -110 83c-7.33301 3.33301 -15 6.16602 -23 8.49902
s-16.667 4.16602 -26 5.49902zM287 307.002c-18 30 -27 67.668 -27 113.001s8.33301 81.666 25 108.999c20.667 34.667 51.667 52 93 52h5l-49 -318c-20 9.33301 -35.667 24 -47 44z" />
    <glyph glyph-name="currency" unicode="&#xa4;" horiz-adv-x="841" 
d="M558 329l-271.997 -0.00292969c-2 20 -3 41.667 -3 65v25c0 8.66699 0.333008 17 1 25h322v115h-302c28.667 90 87.667 135 177 135c68.667 0 124.667 -21.667 168 -65l24 -30c6 -7.33301 10.333 -12.333 13 -15c17.333 -17.333 33.666 -26 48.999 -26
c16.667 0 30.667 5.66699 42 17s17 25.333 17 42c0 10.667 -3.66699 22.334 -11 35.001c-42.667 54.667 -89.334 93.334 -140.001 116.001c-46 20.667 -106 31 -180 31c-122.667 0 -223 -38 -301 -114c-78 -75.333 -117 -174 -117 -296
c0 -121.333 42.667 -222.666 128 -303.999c83.333 -79.333 186.333 -119 309 -119c74 0 136.333 14.667 187 44c48 28 92.333 74.333 133 139c6 8.66699 9 18.667 9 30c0 15.333 -5.5 28.333 -16.5 39s-24.167 16 -39.5 16c-20 0 -35.333 -8.33301 -46 -25
c-28 -43.333 -56.333 -73.333 -85 -90c-38.667 -23.333 -84.334 -35 -137.001 -35c-75.333 0 -130.333 35 -165 105l-6 12c-2 4 -3.66699 8.33301 -5 13h247v115z" />
    <glyph glyph-name="currency" unicode="&#x20ac;" horiz-adv-x="841" 
d="M558 329l-271.997 -0.00292969c-2 20 -3 41.667 -3 65v25c0 8.66699 0.333008 17 1 25h322v115h-302c28.667 90 87.667 135 177 135c68.667 0 124.667 -21.667 168 -65l24 -30c6 -7.33301 10.333 -12.333 13 -15c17.333 -17.333 33.666 -26 48.999 -26
c16.667 0 30.667 5.66699 42 17s17 25.333 17 42c0 10.667 -3.66699 22.334 -11 35.001c-42.667 54.667 -89.334 93.334 -140.001 116.001c-46 20.667 -106 31 -180 31c-122.667 0 -223 -38 -301 -114c-78 -75.333 -117 -174 -117 -296
c0 -121.333 42.667 -222.666 128 -303.999c83.333 -79.333 186.333 -119 309 -119c74 0 136.333 14.667 187 44c48 28 92.333 74.333 133 139c6 8.66699 9 18.667 9 30c0 15.333 -5.5 28.333 -16.5 39s-24.167 16 -39.5 16c-20 0 -35.333 -8.33301 -46 -25
c-28 -43.333 -56.333 -73.333 -85 -90c-38.667 -23.333 -84.334 -35 -137.001 -35c-75.333 0 -130.333 35 -165 105l-6 12c-2 4 -3.66699 8.33301 -5 13h247v115z" />
    <glyph glyph-name="yen" unicode="&#xa5;" horiz-adv-x="657" 
d="M564 208l-151 0.00195312v115h151v115h-121l196 340h-114l-162 -285l-136 241c-8 16.667 -19.167 30.667 -33.5 42s-29.833 19.166 -46.5 23.499s-33.667 4.66602 -51 0.999023s-33 -12.167 -47 -25.5c-16 -14.667 -25.833 -32.167 -29.5 -52.5s-0.5 -39.5 9.5 -57.5
l128 -227h-114v-115h152v-115h-152v-115h152v-93h218v93h151v115z" />
    <glyph glyph-name="brokenbar" unicode="&#xa6;" horiz-adv-x="226" 
d="M194 -104l-1 404h-160v-404h161zM193 912h-160v-362h160v362z" />
    <glyph glyph-name="section" unicode="&#xa7;" horiz-adv-x="599" 
d="M262 -102c30 -0.666992 59.0029 2.83008 87.0029 10.4971s53 19.5 75 35.5s39.667 35.833 53 59.5s20 51.167 20 82.5c0 38 -13.667 71.333 -41 100c33.333 14.667 60.833 35.834 82.5 63.501s32.5 61.834 32.5 102.501c0 72 -48 126 -144 162
c-12.667 4.66699 -26.5 9.5 -41.5 14.5s-28.833 10.5 -41.5 16.5s-23.334 12.5 -32.001 19.5s-13 15.167 -13 24.5c0 34 19.333 51.333 58 52c14.667 0 28.334 -3.5 41.001 -10.5s24.667 -15 36 -24l31.5 -24.5c9.66699 -7.33301 18.834 -11 27.501 -11
c15.333 0 28.5 4.5 39.5 13.5s16.833 21.167 17.5 36.5c0.666992 16 -6.33301 31.333 -21 46s-32.834 27.334 -54.501 38.001s-45.167 19.167 -70.5 25.5s-48 9.16602 -68 8.49902c-30 -0.666992 -58.5 -5.16699 -85.5 -13.5s-50.833 -20.333 -71.5 -36
s-37.167 -35.167 -49.5 -58.5s-18.5 -50.666 -18.5 -81.999c0 -37.333 13.667 -70.333 41 -99c-34 -14 -61.667 -34.833 -83 -62.5s-32 -62.5 -32 -104.5c0 -68.667 46.667 -121.667 140 -159c9.33301 -4 21.166 -8.5 35.499 -13.5s28.166 -10.667 41.499 -17
s24.666 -13.5 33.999 -21.5s14 -16.667 14 -26c0 -32.667 -21.333 -49 -64 -49c-10 0 -21 3.66699 -33 11s-24 15.333 -36 24s-23.667 16.667 -35 24s-21.333 11 -30 11c-11.333 0 -22 -2.83301 -32 -8.5s-17.833 -13 -23.5 -22s-8.5 -18.833 -8.5 -29.5
c0 -10 4.33301 -20 13 -30c48 -52.667 117.667 -79 209 -79zM376.003 311.997c0 -32.667 -22.002 -49.001 -66.002 -49.001c-5.33301 2.66699 -12.666 5.83398 -21.999 9.50098s-18.666 7.83398 -27.999 12.501s-17.5 10.167 -24.5 16.5s-10.5 13.5 -10.5 21.5
c0 34 19.333 51.333 58 52c10 0 20.5 -2.33301 31.5 -7s21 -10.334 30 -17.001s16.5 -13.667 22.5 -21s9 -13.333 9 -18z" />
    <glyph glyph-name="dieresis" unicode="&#xa8;" horiz-adv-x="424" 
d="M285 751c-15.333 0 -28.166 -5.33301 -38.499 -16s-15.5 -23.667 -15.5 -39c0 -14.667 5.16699 -26.667 15.5 -36s23.166 -14 38.499 -14c14 0 26.167 4.83301 36.5 14.5s15.5 21.5 15.5 35.5c0 15.333 -5 28.333 -15 39s-22.333 16 -37 16zM137 751
c-14.667 0 -27 -5.33301 -37 -16s-15 -23.667 -15 -39c0 -14.667 5.16699 -26.667 15.5 -36s22.5 -14 36.5 -14c14.667 0 27.167 4.83301 37.5 14.5s15.5 21.5 15.5 35.5c0 15.333 -5 28.333 -15 39s-22.667 16 -38 16z" />
    <glyph glyph-name="copyright" unicode="&#xa9;" horiz-adv-x="985" 
d="M497 2c62 0 120.834 11.5 176.501 34.5s104.5 54.5 146.5 94.5s75.5 87.167 100.5 141.5s37.5 112.5 37.5 174.5s-9.66699 120.167 -29 174.5s-48.333 101.5 -87 141.5s-86.834 71.5 -144.501 94.5s-124.5 34.167 -200.5 33.5c-62 -0.666992 -121 -12.5 -177 -35.5
s-105.167 -54.5 -147.5 -94.5s-76 -86.833 -101 -140.5s-37.5 -111.5 -37.5 -173.5s12.5 -120.167 37.5 -174.5s58.667 -101.5 101 -141.5s91.5 -71.5 147.5 -94.5s115 -34.5 177 -34.5zM501.001 834c66.667 -0.666992 125.334 -11.001 176.001 -31.001s93 -47.333 127 -82
s59.5 -75.5 76.5 -122.5s25.5 -97.833 25.5 -152.5c0 -54 -10.833 -104.667 -32.5 -152s-51 -88.5 -88 -123.5s-80 -62.5 -129 -82.5s-100.833 -30 -155.5 -30c-34.667 -4 -69.167 -1.16699 -103.5 8.5s-66.833 23.834 -97.5 42.501s-59 41.167 -85 67.5
s-48.333 54.333 -67 84s-32.834 60.5 -42.501 92.5s-13.5 63 -11.5 93c0 54.667 11 105.667 33 153s51.5 88.5 88.5 123.5s80.167 62.5 129.5 82.5s101.333 29.667 156 29zM771.001 283.999c7.33301 11.333 10.999 23 10.999 35c0 18.667 -6.83301 34 -20.5 46
s-30.167 18 -49.5 18c-20 0 -37.667 -8.66699 -53 -26l-32.5 -33.5c-8.33301 -9 -16.833 -16.167 -25.5 -21.5s-18.5 -9 -29.5 -11s-25.833 -3 -44.5 -3c-42 0 -74 18 -96 54c-18 30 -27 67.667 -27 113s8.33301 81.666 25 108.999c20.667 34.667 51.667 52 93 52
c14.667 0 27.834 -2 39.501 -6s22.5 -9.16699 32.5 -15.5s19.167 -13.166 27.5 -20.499l24.5 -21c18 -15.333 35.667 -23 53 -23c18.667 0 35.167 6.33301 49.5 19s21.5 28.334 21.5 47.001c0 13.333 -4.33301 26.333 -13 39c-34 39.333 -70.667 67 -110 83
c-35.333 14.667 -81 22 -137 22c-90.667 0 -165.667 -25.333 -225 -76c-64 -53.333 -96 -124.333 -96 -213c0 -86.667 34.667 -158.667 104 -216c65.333 -53.333 142 -80 230 -80c56 0 103.5 10.167 142.5 30.5s74.167 53.166 105.5 98.499z" />
    <glyph glyph-name="ordfeminine" unicode="&#xaa;" horiz-adv-x="402" 
d="M466 780h-77.999c-196.667 -2.66699 -296 -86.667 -298 -252h-70v-115h73v-413h216v528c2 40.667 8.33301 71.667 19 93c17.333 35.333 49.666 53 96.999 53h41v106z" />
    <glyph glyph-name="guillemotleft" unicode="&#xab;" horiz-adv-x="411" 
d="M380 433l-170 -110v-112l170 -115v72l-111 97l111 96v72zM201 429l-170 -110v-112l170 -115v72l-111 97l111 96v72z" />
    <glyph glyph-name="logicalnot" unicode="&#xac;" horiz-adv-x="1024" 
d="M41 -4l824 -0.00195312c22 0 41.667 2.83301 59 8.5s32 13.5 44 23.5s21.167 21.5 27.5 34.5s9.5 26.833 9.5 41.5c0 28.667 -7.5 51.334 -22.5 68.001s-34.833 29 -59.5 37c16.667 8 30.167 19.5 40.5 34.5s15.5 32.833 15.5 53.5c0 11.333 -1.33301 21.833 -4 31.5
s-7.66699 18.834 -15 27.501h3v140h-47l-4 -93h-292v188h-231v125h53v48h-415l-9 -106h49l4 58h109v-313h-139v-407zM230 355.998v360h108v-173h232v-139h-53v-48h2l75 -186h-192l-20 -47h230l32 -79h-554v312h140zM699 43.998l-3 -0.000976562l-128 312h266
c20 0 36 -2.16699 48 -6.5s21.5 -9.66602 28.5 -15.999s11.667 -13 14 -20s3.5 -13.167 3.5 -18.5c0 -18.667 -8.33301 -34.167 -25 -46.5s-36.667 -18.5 -60 -18.5h-114v-48h103c5.33301 0 14.666 -0.5 27.999 -1.5s26.833 -3.66699 40.5 -8s25.834 -11.333 36.501 -21
s16 -23.167 16 -40.5s-4.16699 -30.5 -12.5 -39.5s-19 -15.667 -32 -20s-27 -6.83301 -42 -7.5s-29.5 -1 -43.5 -1h-124v1zM914 622.997h46l-3 140h-294v-221h153v-51h47v151h-47v-52h-103v125h193zM338 404.997l13 -178h48l12 178h-73z" />
    <glyph glyph-name="registered" unicode="&#xae;" horiz-adv-x="630" 
d="M318 346c38 0 74.1689 7 108.502 21s64.5 33.333 90.5 58s46.667 53.667 62 87s23 69 23 107s-6 73.667 -18 107s-29.833 62.333 -53.5 87s-53.334 44 -89.001 58s-76.834 21 -123.501 21c-38 0 -74.167 -7.16699 -108.5 -21.5s-64.5 -33.833 -90.5 -58.5
s-46.667 -53.5 -62 -86.5s-23 -68.5 -23 -106.5s7.66699 -73.667 23 -107s36 -62.333 62 -87s56.167 -44 90.5 -58s70.5 -21 108.5 -21zM321.002 857c41.333 -0.666992 77.499 -7.16699 108.499 -19.5s57 -29.166 78 -50.499s36.667 -46.5 47 -75.5s15.5 -60.167 15.5 -93.5
s-6.66699 -64.5 -20 -93.5s-31.333 -54.167 -54 -75.5s-49.167 -38.166 -79.5 -50.499s-62.166 -18.5 -95.499 -18.5c-32 -3.33301 -63.333 2 -94 16s-58 32.833 -82 56.5s-42.833 50.334 -56.5 80.001s-19.5 58.167 -17.5 85.5c0 33.333 6.66699 64.666 20 93.999
s31.5 54.666 54.5 75.999s49.5 38.166 79.5 50.499s62 18.5 96 18.5zM486.001 453l-86.001 151.997c24 6 44 17.333 60 34s24 38 24 64c0 30.667 -13.667 56.334 -41 77.001c-23.333 19.333 -51.666 29 -84.999 29h-146c-9.33301 0 -17.333 -3.16699 -24 -9.5
s-10 -14.166 -10 -23.499l1 -323h100v313h36c19.333 0 35.166 -6.16699 47.499 -18.5s18.5 -28.166 18.5 -47.499c0 -26 -8 -44 -24 -54c-13.333 -8 -33.666 -12 -60.999 -12h-11l88 -181h113z" />
    <glyph glyph-name="macron" unicode="&#xaf;" horiz-adv-x="418" 
d="M373 628v80h-328v-80h328z" />
    <glyph glyph-name="macron" unicode="&#x2c9;" horiz-adv-x="418" 
d="M373 628v80h-328v-80h328z" />
    <glyph glyph-name="degree" unicode="&#xb0;" horiz-adv-x="343" 
d="M45 656c-0.666992 -17.333 2.33301 -33.833 9 -49.5s16 -29.167 28 -40.5s25.833 -20.333 41.5 -27s31.834 -10 48.501 -10c17.333 0 33.666 3.33301 48.999 10s28.666 15.834 39.999 27.501s20.333 25.167 27 40.5s10 31.666 10 48.999s-3.33301 33.666 -10 48.999
s-15.667 28.666 -27 39.999s-24.666 20.333 -39.999 27s-31.666 10 -48.999 10c-16.667 0 -32.834 -3.33301 -48.501 -10s-29.5 -15.667 -41.5 -27s-21.333 -24.666 -28 -39.999s-9.66699 -31.666 -9 -48.999zM104 656c0 18.667 6.66699 34.5 20 47.5s29.333 19.5 48 19.5
s34.5 -6.5 47.5 -19.5s19.5 -28.833 19.5 -47.5s-6.5 -34.667 -19.5 -48s-28.833 -20 -47.5 -20s-34.667 6.66699 -48 20s-20 29.333 -20 48z" />
    <glyph glyph-name="plusminus" unicode="&#xb1;" horiz-adv-x="504" 
d="M478 381l0.00390625 115h-153v124c0 11.333 -1.83301 23 -5.5 35s-8.83398 22.833 -15.501 32.5s-14.834 17.667 -24.501 24s-20.834 9.5 -33.501 9.5s-23.834 -3.16699 -33.501 -9.5s-18 -14.333 -25 -24s-12.333 -20.5 -16 -32.5s-5.5 -23.667 -5.5 -35v-124h-142v-115
h143v-174h157v174h154zM477.004 39v115h-454v-115h454z" />
    <glyph glyph-name="twosuperior" unicode="&#xb2;" horiz-adv-x="814" 
d="M753 534l-118.002 -0.000976562v131c0 14.667 -3 28.667 -9 42s-14 25 -24 35s-21.5 18 -34.5 24s-26.833 9 -41.5 9c-15.333 0 -29.666 -2.83301 -42.999 -8.5s-25 -13.5 -35 -23.5s-17.833 -21.667 -23.5 -35s-8.5 -27.666 -8.5 -42.999v-131h-110v131
c0 14.667 -3 28.667 -9 42s-14 25 -24 35s-21.5 18 -34.5 24s-26.833 9 -41.5 9c-15.333 0 -29.666 -2.83301 -42.999 -8.5s-25 -13.5 -35 -23.5s-17.833 -21.667 -23.5 -35s-8.5 -27.666 -8.5 -42.999v-131h-67v-115h68l1 -419l220 1v418h108l1 -419l220 1v418h115
c31.333 0 47 18.333 47 55c0 15.333 -4.16699 29.166 -12.5 41.499s-19.833 18.5 -34.5 18.5z" />
    <glyph glyph-name="threesuperior" unicode="&#xb3;" horiz-adv-x="841" 
d="M662 445l-378.005 -0.00195312c10.667 166 76.334 249 197.001 249c26 0 48.333 -2.83301 67 -8.5s35.667 -13.5 51 -23.5s29.833 -21.667 43.5 -35l43.5 -43c17.333 -17.333 33.666 -26 48.999 -26c16.667 0 30.667 5.66699 42 17s17 25.333 17 42
c0 10.667 -3.66699 22.334 -11 35.001c-22.667 28 -45.167 51.333 -67.5 70s-46.166 33.834 -71.499 45.501s-52.666 19.834 -81.999 24.501s-62.333 7 -99 7c-60.667 0 -116.5 -10 -167.5 -30s-95 -48 -132 -84s-66 -79.167 -87 -129.5s-31.5 -105.833 -31.5 -166.5
c0 -61.333 11.333 -117.833 34 -169.5s53.834 -96.167 93.501 -133.5s86 -66.666 139 -87.999s109.833 -32 170.5 -32c38 0 72.167 3.5 102.5 10.5s58.333 17.833 84 32.5s49.334 33.667 71.001 57s42.5 51 62.5 83c6 8.66699 9 18.667 9 30c0 15.333 -5.5 28.333 -16.5 39
s-24.167 16 -39.5 16c-20 0 -35.333 -8.33301 -46 -25c-14.667 -22.667 -29.667 -41.667 -45 -57s-31.666 -28 -48.999 -38s-36.5 -17.333 -57.5 -22s-44.5 -7.33398 -70.5 -8.00098c-34.667 0.666992 -64.167 8 -88.5 22s-44.333 32.333 -60 55s-27.667 48.667 -36 78
s-13.833 59.666 -16.5 90.999h376v115z" />
    <glyph glyph-name="acute" unicode="&#xb4;" horiz-adv-x="427" 
d="M132 608h72l150 170h-112z" />
    <glyph glyph-name="mu" unicode="&#xb5;" 
d="M466 0h216.999v571h-217v-422c-7.33301 -12.667 -16.5 -22.334 -27.5 -29.001s-21.833 -11.5 -32.5 -14.5s-20.167 -4.66699 -28.5 -5s-13.166 -0.5 -14.499 -0.5c-20 0.666992 -36.5 4.5 -49.5 11.5s-23.167 18 -30.5 33s-12.5 34.833 -15.5 59.5
s-4.5 55.334 -4.5 92.001v203c0 13.333 -3.5 24.666 -10.5 33.999s-15.667 16.833 -26 22.5s-22 9.83398 -35 12.501s-25.5 4 -37.5 4s-24.5 -1.33301 -37.5 -4s-24.667 -6.83398 -35 -12.501s-18.833 -13.167 -25.5 -22.5s-10 -20.666 -10 -33.999v-688h218l-1 186
c11.333 -2 23.5 -3.5 36.5 -4.5s26.5 -1.83301 40.5 -2.5c5.33301 0 12.833 0.666992 22.5 2s20.334 3.83301 32.001 7.5s23.667 8.5 36 14.5s24.166 14 35.499 24v-38z" />
    <glyph glyph-name="mu" unicode="&#x3bc;" 
d="M466 0h216.999v571h-217v-422c-7.33301 -12.667 -16.5 -22.334 -27.5 -29.001s-21.833 -11.5 -32.5 -14.5s-20.167 -4.66699 -28.5 -5s-13.166 -0.5 -14.499 -0.5c-20 0.666992 -36.5 4.5 -49.5 11.5s-23.167 18 -30.5 33s-12.5 34.833 -15.5 59.5
s-4.5 55.334 -4.5 92.001v203c0 13.333 -3.5 24.666 -10.5 33.999s-15.667 16.833 -26 22.5s-22 9.83398 -35 12.501s-25.5 4 -37.5 4s-24.5 -1.33301 -37.5 -4s-24.667 -6.83398 -35 -12.501s-18.833 -13.167 -25.5 -22.5s-10 -20.666 -10 -33.999v-688h218l-1 186
c11.333 -2 23.5 -3.5 36.5 -4.5s26.5 -1.83301 40.5 -2.5c5.33301 0 12.833 0.666992 22.5 2s20.334 3.83301 32.001 7.5s23.667 8.5 36 14.5s24.166 14 35.499 24v-38z" />
    <glyph glyph-name="paragraph" unicode="&#xb6;" horiz-adv-x="720" 
d="M496 565l-0.000976562 -747.001h107v815c0 19.333 -7.16699 36.166 -21.5 50.499s-31.166 21.5 -50.499 21.5h-228c-48.667 0 -90 -6 -124 -18s-61.5 -29.5 -82.5 -52.5s-36.167 -51.167 -45.5 -84.5s-14 -71.666 -14 -114.999c0 -66 14.167 -118.667 42.5 -158
s65.5 -68.666 111.5 -87.999v-371h220v747h85zM113.999 467.999l37 0.000976562v84h-29l-1 -15h-13l2 28h111v-13h-14v-33h62v-51h78l1 25h12v-37h-1c4 -5.33301 6 -10.333 6 -15c0 -11.333 -5.33301 -19.333 -16 -24c15.333 -4.66699 23 -14.334 23 -29.001
c0 -7.33301 -3.33301 -13.833 -10 -19.5s-16 -8.5 -28 -8.5h-220v108zM164.999 456v96h28v-46h62v-37h-14v-13l21 -50h-52l-5 -12h62l8 -21h-148v83h38zM322.999 373h-34.001l-34 83h71c10.667 0 17.5 -1.83301 20.5 -5.5s4.5 -7.16699 4.5 -10.5
c0 -5.33301 -2.33301 -9.66602 -7 -12.999s-10 -5 -16 -5h-30v-13h27c1.33301 0 3.83301 -0.166992 7.5 -0.5s7.33398 -1 11.001 -2s7 -2.83301 10 -5.5s4.5 -6.33398 4.5 -11.001c0 -8.66699 -4 -13.667 -12 -15s-15.667 -2 -23 -2zM344.998 552h-52v-33h28v14h12v-41h-12
v14h-41v59h79v-37h-12zM192.998 469l4 -48h13l3 48h-20z" />
    <glyph glyph-name="periodcentered" unicode="&#xb7;" horiz-adv-x="282" 
d="M146 500c-28 0 -51.002 -9.66699 -69.002 -29s-27 -43 -27 -71c0 -26.667 9.33301 -48.667 28 -66s41.334 -26 68.001 -26c12.667 0 24.834 2.33301 36.501 7s22 11.167 31 19.5s16 18 21 29s7.5 23.167 7.5 36.5c0 28 -9 51.667 -27 71s-41 29 -69 29z" />
    <glyph glyph-name="cedilla" unicode="&#xb8;" horiz-adv-x="173" 
d="M92 -217l33.999 125l17.5 67c3.66699 14.667 5.83398 24 6.50098 28s1 7 1 9h-128l57 -232z" />
    <glyph glyph-name="onesuperior" unicode="&#xb9;" horiz-adv-x="858" 
d="M846 798l-113.998 0.000976562c-196.667 -2.66699 -296 -86.667 -298 -252h-125c2 40.667 8.33301 71.667 19 93c17.333 35.333 49.666 53 96.999 53h22v106h-59c-196.667 -2.66699 -296 -86.667 -298 -252h-70v-115h73v-431h216v431h128v-431h216v431h115
c31.333 0 47 18.333 47 55c0 15.333 -4.16699 29.166 -12.5 41.499s-19.833 18.5 -34.5 18.5h-115c2 40.667 8.33301 71.667 19 93c17.333 35.333 49.666 53 96.999 53h77v106z" />
    <glyph glyph-name="ordmasculine" unicode="&#xba;" horiz-adv-x="542" 
d="M269 762c-30 0.666992 -58.332 -5 -84.999 -17s-49.834 -28.333 -69.501 -49s-35.167 -44.5 -46.5 -71.5s-17 -55.167 -17 -84.5c0 -30.667 5.66699 -59 17 -85s27 -48.5 47 -67.5s43.167 -33.833 69.5 -44.5s54.5 -16 84.5 -16s58.333 5.33301 85 16s50 25.5 70 44.5
s36 41.5 48 67.5s18 54.333 18 85c0 29.333 -5.83301 57.666 -17.5 84.999s-27.5 51.333 -47.5 72s-43.5 36.834 -70.5 48.501s-55.5 17.167 -85.5 16.5zM271.001 693c48 0 72.002 -49.333 72.002 -148c0 -99.333 -24 -149 -72 -149s-72 49.667 -72 149
c0 20 0.833008 38.333 2.5 55s5.16699 31.334 10.5 44.001s12.666 23.167 21.999 31.5s21.666 14.166 36.999 17.499zM488.003 163v115h-429v-115h429z" />
    <glyph glyph-name="guillemotright" unicode="&#xbb;" horiz-adv-x="411" 
d="M32 433l170 -110v-112l-170 -115v72l111 97l-111 96v72zM211 429l170 -110v-112l-170 -115v72l111 97l-111 96v72z" />
    <glyph glyph-name="onequarter" unicode="&#xbc;" horiz-adv-x="933" 
d="M870 549l-118 -0.000976562v131c0 14.667 -3 28.667 -9 42s-14 25 -24 35s-21.5 18 -34.5 24s-26.833 9 -41.5 9c-15.333 0 -29.666 -2.83301 -42.999 -8.5s-25 -13.5 -35 -23.5s-17.833 -21.667 -23.5 -35s-8.5 -27.666 -8.5 -42.999v-131l-224 -1
c2 38.667 8.66699 69.334 20 92.001c17.333 35.333 49.666 53 96.999 53h77v106h-114c-197.333 -3.33301 -297 -87 -299 -251h-70v-115h73v-433h216v433l225 1v-435h220l1 435h115c31.333 0 47 18.333 47 55c0 15.333 -4.16699 29.166 -12.5 41.499s-19.833 18.5 -34.5 18.5
z" />
    <glyph glyph-name="onehalf" unicode="&#xbd;" horiz-adv-x="1012" 
d="M438 793l-50.998 -0.000976562c-196.667 -2.66699 -296 -86.667 -298 -252h-70v-115h73v-426h216v426h121v-426h216v426h114v-426h220v461c0.666992 14.667 -2 28.667 -8 42s-14.333 25 -25 35s-22.667 18 -36 24s-27 9 -41 9c-16.667 0 -32.167 -3.5 -46.5 -10.5
s-26.833 -16.5 -37.5 -28.5c-3.33301 2.66699 -7 4.83398 -11 6.50098s-8.66699 2.5 -14 2.5h-115c2 40.667 8.33301 71.667 19 93c17.333 35.333 49.666 53 96.999 53h77v106h-114c-196.667 -2.66699 -296 -86.667 -298 -252h-118c2 40.667 8.33301 71.667 19 93
c17.333 35.333 49.666 53 96.999 53h14v106z" />
    <glyph glyph-name="threequarters" unicode="&#xbe;" horiz-adv-x="1070" 
d="M433 821l-50.999 0.000976562c-196.667 -2.66699 -296 -86.667 -298 -252h-70v-115h73v-454h216v454h112v-454h216v454h115c31.333 0 47 18.333 47 55c0 15.333 -4.16699 29.166 -12.5 41.499s-19.833 18.5 -34.5 18.5h-115c2 40.667 8.33301 71.667 19 93
c16.667 34 49 51.667 97 53h71v-714h218v719c0 14.667 -2.83301 28.667 -8.5 42s-13.5 25 -23.5 35s-21.5 18 -34.5 24s-26.833 9 -41.5 9c-16 0 -30.333 -3 -43 -9h-175c-196.667 -2.66699 -296 -86.667 -298 -252h-109c2 40.667 8.33301 71.667 19 93
c17.333 35.333 49.666 53 96.999 53h14v106z" />
    <glyph glyph-name="questiondown" unicode="&#xbf;" horiz-adv-x="531" 
d="M194 18c2 20 6.33594 36.8369 13.0029 50.5039s15 26.167 25 37.5s21.833 22.666 35.5 33.999s28.834 25 45.501 41c28 26.667 42 56.667 42 90c0 2 -0.333008 4.33301 -1 7s-2 8.66699 -4 18l-9 44l-17 86h-65c-2.66699 -21.333 -7.83398 -43.833 -15.501 -67.5
s-23.167 -44.834 -46.5 -63.501c-26 -20.667 -49.833 -38.834 -71.5 -54.501s-40.5 -32 -56.5 -49s-28.333 -36.5 -37 -58.5s-13 -49.333 -13 -82s5.66699 -61.667 17 -87s26.666 -47.166 45.999 -65.499s41.5 -32.833 66.5 -43.5s51.5 -17.5 79.5 -20.5s56.333 -2 85 3
s56 14.167 82 27.5c39.333 20 68.666 47.667 87.999 83s28.333 75 27 119c-0.666992 15.333 -6.16699 27.166 -16.5 35.499s-21.5 12.666 -33.5 12.999s-23.167 -3.5 -33.5 -11.5s-15.5 -20 -15.5 -36c2 -17.333 0.5 -34.5 -4.5 -51.5s-12.667 -32.333 -23 -46
s-23 -24.667 -38 -33s-31.5 -12.5 -49.5 -12.5c-28.667 0 -52.834 8.5 -72.501 25.5s-29.5 39.5 -29.5 67.5zM291.003 466.004c28 0 51.002 9.66504 69.002 28.998s27 43 27 71c0 26.667 -9.33301 48.667 -28 66s-41.334 26 -68.001 26
c-12.667 0 -24.834 -2.33301 -36.501 -7s-21.834 -11.167 -30.501 -19.5s-15.667 -18.166 -21 -29.499s-8 -23.333 -8 -36c0 -13.333 2.5 -26 7.5 -38s11.833 -22.667 20.5 -32s18.834 -16.666 30.501 -21.999s24.167 -8 37.5 -8z" />
    <glyph glyph-name="Agrave" unicode="&#xc0;" horiz-adv-x="711" 
d="M666 0l0.00195312 529c0 58.667 -15.667 109.5 -47 152.5s-74.333 74.833 -129 95.5c-38 14.667 -81.667 22 -131 22c-92.667 0 -166.334 -19.333 -221.001 -58c-62.667 -44 -93.334 -111 -92.001 -201v-494c0 -16.667 5.66699 -30.5 17 -41.5s25.333 -16.5 42 -16.5
c16 0 29.333 5.66699 40 17s16 25 16 41v255h288v-301h217zM448.002 400h-288v121c1.33301 101.333 48.333 152 141 152c99.333 0 148.333 -50.667 147 -152v-121zM416.002 828l-110 170h-112l150 -170h72z" />
    <glyph glyph-name="Aacute" unicode="&#xc1;" horiz-adv-x="711" 
d="M666 0l0.00195312 529c0 58.667 -15.667 109.5 -47 152.5s-74.333 74.833 -129 95.5c-38 14.667 -81.667 22 -131 22c-92.667 0 -166.334 -19.333 -221.001 -58c-62.667 -44 -93.334 -111 -92.001 -201v-494c0 -16.667 5.66699 -30.5 17 -41.5s25.333 -16.5 42 -16.5
c16 0 29.333 5.66699 40 17s16 25 16 41v255h288v-301h217zM448.002 400h-288v121c1.33301 101.333 48.333 152 141 152c99.333 0 148.333 -50.667 147 -152v-121zM253.002 833h72l150 170h-112z" />
    <glyph glyph-name="Acircumflex" unicode="&#xc2;" horiz-adv-x="711" 
d="M666 0l0.00195312 529c0 58.667 -15.667 109.5 -47 152.5s-74.333 74.833 -129 95.5c-38 14.667 -81.667 22 -131 22c-92.667 0 -166.334 -19.333 -221.001 -58c-62.667 -44 -93.334 -111 -92.001 -201v-494c0 -16.667 5.66699 -30.5 17 -41.5s25.333 -16.5 42 -16.5
c16 0 29.333 5.66699 40 17s16 25 16 41v255h288v-301h217zM448.002 400h-288v121c1.33301 101.333 48.333 152 141 152c99.333 0 148.333 -50.667 147 -152v-121zM160.002 830h72l96 111l97 -111h72l-115 170h-112z" />
    <glyph glyph-name="Atilde" unicode="&#xc3;" horiz-adv-x="711" 
d="M666 0l0.00195312 529c0 58.667 -15.667 109.5 -47 152.5s-74.333 74.833 -129 95.5c-38 14.667 -81.667 22 -131 22c-92.667 0 -166.334 -19.333 -221.001 -58c-62.667 -44 -93.334 -111 -92.001 -201v-494c0 -16.667 5.66699 -30.5 17 -41.5s25.333 -16.5 42 -16.5
c16 0 29.333 5.66699 40 17s16 25 16 41v255h288v-301h217zM448.002 400h-288v121c1.33301 101.333 48.333 152 141 152c99.333 0 148.333 -50.667 147 -152v-121zM185.002 844c2.66699 6 6.33203 12.166 10.999 18.499s10.334 12 17.001 17s14 8.66699 22 11
s16.667 2.5 26 0.5l14 -7l33 -16c12.667 -6 26 -11.667 40 -17s26 -8.33301 36 -9c38 -4.66699 69.333 2.83301 94 22.5s39.667 48.5 45 86.5l-36 4l-14 -21.5c-4.66699 -7 -10 -12.833 -16 -17.5s-12.833 -8 -20.5 -10s-16.834 -2 -27.501 0
c-2.66699 0.666992 -10 3.83398 -22 9.50098l-39.5 18l-40.5 18c-12.667 5.66699 -20.667 8.5 -24 8.5c-67.333 8 -114.666 -29 -141.999 -111z" />
    <glyph glyph-name="Adieresis" unicode="&#xc4;" horiz-adv-x="711" 
d="M666 0l0.00195312 529c0 58.667 -15.667 109.5 -47 152.5s-74.333 74.833 -129 95.5c-38 14.667 -81.667 22 -131 22c-92.667 0 -166.334 -19.333 -221.001 -58c-62.667 -44 -93.334 -111 -92.001 -201v-494c0 -16.667 5.66699 -30.5 17 -41.5s25.333 -16.5 42 -16.5
c16 0 29.333 5.66699 40 17s16 25 16 41v255h288v-301h217zM448.002 400h-288v121c1.33301 101.333 48.333 152 141 152c99.333 0 148.333 -50.667 147 -152v-121zM412.002 955c-15.333 0 -28.166 -5.33301 -38.499 -16s-15.5 -23.667 -15.5 -39
c0 -14.667 5.16699 -26.667 15.5 -36s23.166 -14 38.499 -14c14 0 26.167 4.83301 36.5 14.5s15.5 21.5 15.5 35.5c0 15.333 -5 28.333 -15 39s-22.333 16 -37 16zM264.002 955c-14.667 0 -27 -5.33301 -37 -16s-15 -23.667 -15 -39c0 -14.667 5.16699 -26.667 15.5 -36
s22.5 -14 36.5 -14c14.667 0 27.167 4.83301 37.5 14.5s15.5 21.5 15.5 35.5c0 15.333 -5 28.333 -15 39s-22.667 16 -38 16z" />
    <glyph glyph-name="Aring" unicode="&#xc5;" horiz-adv-x="711" 
d="M666 0l0.00195312 529c0 58.667 -15.667 109.5 -47 152.5s-74.333 74.833 -129 95.5c-38 14.667 -81.667 22 -131 22c-92.667 0 -166.334 -19.333 -221.001 -58c-62.667 -44 -93.334 -111 -92.001 -201v-494c0 -16.667 5.66699 -30.5 17 -41.5s25.333 -16.5 42 -16.5
c16 0 29.5 5.66699 40.5 17s16.5 25 16.5 41l-1 255h288l1 -301h216zM448.002 400h-288v121c1.33301 101.333 48.333 152 141 152c99.333 0 148.333 -50.667 147 -152v-121zM223.002 958c0 -35.333 12.334 -65.333 37.001 -90s54.667 -37 90 -37s65 12.333 89 37
c24.667 24.667 37 54.667 37 90c0 34.667 -12.333 64.334 -37 89.001s-54.334 37 -89.001 37c-35.333 0 -65.333 -12.333 -90 -37s-37 -54.334 -37 -89.001zM282.003 958c0 18.667 6.66699 34.5 20 47.5s29.333 19.5 48 19.5s34.5 -6.5 47.5 -19.5s19.5 -28.833 19.5 -47.5
s-6.5 -34.667 -19.5 -48s-28.833 -20 -47.5 -20s-34.667 6.66699 -48 20s-20 29.333 -20 48z" />
    <glyph glyph-name="AE" unicode="&#xc6;" horiz-adv-x="946" 
d="M359 799c-92.667 0 -166.328 -19.332 -220.995 -57.999c-62.667 -44 -93.334 -111 -92.001 -201v-494c0 -16.667 5.66699 -30.5 17 -41.5s25.333 -16.5 42 -16.5c16 0 29.5 5.66699 40.5 17s16.5 25 16.5 41l-1 255h287v-301h424c14.667 0 27.5 5.16699 38.5 15.5
s16.167 22.833 15.5 37.5s-6.16699 27.167 -16.5 37.5s-22.833 15.5 -37.5 15.5h-227v241h261v105h-262v220h224c14.667 0 27.167 5.16699 37.5 15.5s15.5 22.833 15.5 37.5s-5.33301 27.167 -16 37.5s-23.334 15.5 -38.001 15.5h-159h-103
c-26.667 0 -46.834 -0.166992 -60.501 -0.5s-23.834 -0.5 -30.501 -0.5s-11.334 -0.166992 -14.001 -0.5s-6 -0.5 -10 -0.5c-10.667 -0.666992 -21.167 0.166016 -31.5 2.49902s-20.833 5 -31.5 8s-21.667 5.83301 -33 8.5s-23 4 -35 4zM448.006 400.001h-288v121
c1.33301 101.333 48.333 152 141 152c99.333 0 148.333 -50.667 147 -152v-121z" />
    <glyph glyph-name="Ccedilla" unicode="&#xc7;" horiz-adv-x="841" 
d="M471 -260l33.9961 124.998l17.5 67c3.66699 14.667 5.83398 23.834 6.50098 27.501s1 6.5 1 8.5c61.333 5.33301 113 22.5 155 51.5s81 72.167 117 129.5c6 8.66699 9 18.667 9 30c0 15.333 -5.5 28.333 -16.5 39s-24.167 16 -39.5 16c-20 0 -35.333 -8.33301 -46 -25
c-14.667 -22.667 -29.667 -41.667 -45 -57s-31.666 -28 -48.999 -38s-36.5 -17.333 -57.5 -22s-44.5 -7.33398 -70.5 -8.00098c-40.667 0.666992 -74.167 10.334 -100.5 29.001s-47.166 42.667 -62.499 72s-26 62.166 -32 98.499s-9 73.166 -9 110.499c0 200 66 300 198 300
c26 0 48.333 -2.83301 67 -8.5s35.667 -13.5 51 -23.5s29.833 -21.667 43.5 -35l43.5 -43c17.333 -17.333 33.666 -26 48.999 -26c16.667 0 30.667 5.66699 42 17s17 25.333 17 42c0 10.667 -3.66699 22.334 -11 35.001c-22.667 28 -45.167 51.333 -67.5 70
s-46.166 33.834 -71.499 45.501s-52.666 19.834 -81.999 24.501s-62.333 7 -99 7c-60.667 0 -116.5 -10 -167.5 -30s-95 -48 -132 -84s-66 -79.167 -87 -129.5s-31.5 -105.833 -31.5 -166.5c0 -54 9 -104.5 27 -151.5s43 -88.833 75 -125.5s69.833 -67 113.5 -91
s91.167 -40 142.5 -48l56 -236z" />
    <glyph glyph-name="Egrave" unicode="&#xc8;" horiz-adv-x="563" 
d="M45 706l1 -706.001h446c14.667 0 27.5 5.16699 38.5 15.5s16.167 22.833 15.5 37.5s-6.16699 27.167 -16.5 37.5s-22.833 15.5 -37.5 15.5h-227v241h261v105h-262v220h224c14.667 0 27.167 5.16699 37.5 15.5s15.5 22.833 15.5 37.5s-5.33301 27.167 -16 37.5
s-23.334 15.5 -38.001 15.5h-370c-19.333 0 -36.166 -7.16699 -50.499 -21.5s-21.5 -31.166 -21.5 -50.499zM401 829.999l-110 170h-112l150 -170h72z" />
    <glyph glyph-name="Eacute" unicode="&#xc9;" horiz-adv-x="563" 
d="M45 706l1 -706.001h446c14.667 0 27.5 5.16699 38.5 15.5s16.167 22.833 15.5 37.5s-6.16699 27.167 -16.5 37.5s-22.833 15.5 -37.5 15.5h-227v241h261v105h-262v220h224c14.667 0 27.167 5.16699 37.5 15.5s15.5 22.833 15.5 37.5s-5.33301 27.167 -16 37.5
s-23.334 15.5 -38.001 15.5h-370c-19.333 0 -36.166 -7.16699 -50.499 -21.5s-21.5 -31.166 -21.5 -50.499zM231 817.999h72l150 170h-112z" />
    <glyph glyph-name="Ecircumflex" unicode="&#xca;" horiz-adv-x="563" 
d="M45 706l1 -706.001h446c14.667 0 27.5 5.16699 38.5 15.5s16.167 22.833 15.5 37.5s-6.16699 27.167 -16.5 37.5s-22.833 15.5 -37.5 15.5h-227v241h261v105h-262v220h224c14.667 0 27.167 5.16699 37.5 15.5s15.5 22.833 15.5 37.5s-5.33301 27.167 -16 37.5
s-23.334 15.5 -38.001 15.5h-370c-19.333 0 -36.166 -7.16699 -50.499 -21.5s-21.5 -31.166 -21.5 -50.499zM131 827.999h72l96 111l97 -111h72l-115 170h-112z" />
    <glyph glyph-name="Edieresis" unicode="&#xcb;" horiz-adv-x="563" 
d="M45 706l1 -706.001h446c14.667 0 27.5 5.16699 38.5 15.5s16.167 22.833 15.5 37.5s-6.16699 27.167 -16.5 37.5s-22.833 15.5 -37.5 15.5h-227v241h261v105h-262v220h224c14.667 0 27.167 5.16699 37.5 15.5s15.5 22.833 15.5 37.5s-5.33301 27.167 -16 37.5
s-23.334 15.5 -38.001 15.5h-370c-19.333 0 -36.166 -7.16699 -50.499 -21.5s-21.5 -31.166 -21.5 -50.499zM369 933.999c-15.333 0 -28.166 -5.33301 -38.499 -16s-15.5 -23.667 -15.5 -39c0 -14.667 5.16699 -26.667 15.5 -36s23.166 -14 38.499 -14
c14 0 26.167 4.83301 36.5 14.5s15.5 21.5 15.5 35.5c0 15.333 -5 28.333 -15 39s-22.333 16 -37 16zM221 933.999c-14.667 0 -27 -5.33301 -37 -16s-15 -23.667 -15 -39c0 -14.667 5.16699 -26.667 15.5 -36s22.5 -14 36.5 -14c14.667 0 27.167 4.83301 37.5 14.5
s15.5 21.5 15.5 35.5c0 15.333 -5 28.333 -15 39s-22.667 16 -38 16z" />
    <glyph glyph-name="Igrave" unicode="&#xcc;" horiz-adv-x="312" 
d="M46 680v-680.001h220v680c0.666992 14 -2 27.667 -8 41s-14.333 25.333 -25 36s-22.667 19 -36 25s-27 8.66699 -41 8c-14 0.666992 -27.833 -2 -41.5 -8s-25.667 -14.167 -36 -24.5s-18.5 -22.166 -24.5 -35.499s-8.66699 -27.333 -8 -42zM232 827.999l-110 170h-112
l150 -170h72z" />
    <glyph glyph-name="Iacute" unicode="&#xcd;" horiz-adv-x="312" 
d="M46 680v-680.001h220v680c0.666992 14 -2 27.667 -8 41s-14.333 25.333 -25 36s-22.667 19 -36 25s-27 8.66699 -41 8c-14 0.666992 -27.833 -2 -41.5 -8s-25.667 -14.167 -36 -24.5s-18.5 -22.166 -24.5 -35.499s-8.66699 -27.333 -8 -42zM70 822.999h72l150 170h-112z
" />
    <glyph glyph-name="Icircumflex" unicode="&#xce;" horiz-adv-x="312" 
d="M46 680v-680.001h220v680c0.666992 14 -2 27.667 -8 41s-14.333 25.333 -25 36s-22.667 19 -36 25s-27 8.66699 -41 8c-14 0.666992 -27.833 -2 -41.5 -8s-25.667 -14.167 -36 -24.5s-18.5 -22.166 -24.5 -35.499s-8.66699 -27.333 -8 -42zM-11 826.999h72l96 111
l97 -111h72l-115 170h-112z" />
    <glyph glyph-name="Idieresis" unicode="&#xcf;" horiz-adv-x="312" 
d="M46 680v-680.001h220v680c0.666992 14 -2 27.667 -8 41s-14.333 25.333 -25 36s-22.667 19 -36 25s-27 8.66699 -41 8c-14 0.666992 -27.833 -2 -41.5 -8s-25.667 -14.167 -36 -24.5s-18.5 -22.166 -24.5 -35.499s-8.66699 -27.333 -8 -42zM227 938.999
c-15.333 0 -28.166 -5.33301 -38.499 -16s-15.5 -23.667 -15.5 -39c0 -14.667 5.16699 -26.667 15.5 -36s23.166 -14 38.499 -14c14 0 26.167 4.83301 36.5 14.5s15.5 21.5 15.5 35.5c0 15.333 -5 28.333 -15 39s-22.333 16 -37 16zM79 938.999
c-14.667 0 -27 -5.33301 -37 -16s-15 -23.667 -15 -39c0 -14.667 5.16699 -26.667 15.5 -36s22.5 -14 36.5 -14c14.667 0 27.167 4.83301 37.5 14.5s15.5 21.5 15.5 35.5c0 15.333 -5 28.333 -15 39s-22.667 16 -38 16z" />
    <glyph glyph-name="Eth" unicode="&#xd0;" horiz-adv-x="854" 
d="M809 374c0 121.333 -39.6699 218.999 -119.003 292.999s-179.666 111 -300.999 111h-272c-19.333 0 -36.166 -7.16699 -50.499 -21.5s-21.5 -31.166 -21.5 -50.499v-266h-47v-115h47l1 -325h380c116.667 -0 209.334 33.333 278.001 100c70 66.667 105 158 105 274z
M396.997 439.999h-132.999v239h73c54 0 100.167 -15 138.5 -45s65.166 -71 80.499 -123c10 -34 15 -69 15 -105h-1c0 -84 -16 -153.333 -48 -208c-40 -66.667 -99 -100 -177 -100h-81v227h133v115z" />
    <glyph glyph-name="Ntilde" unicode="&#xd1;" horiz-adv-x="712" 
d="M552 385h-3l-259 393h-245v-778h116v571h2l377 -571h127v732c0 16 -5.33301 29.667 -16 41s-24 17 -40 17c-16.667 0 -30.667 -5.5 -42 -16.5s-17 -24.833 -17 -41.5v-347zM218 829c2.66699 6 6.33203 12.166 10.999 18.499s10.334 12 17.001 17s14 8.66699 22 11
s16.667 2.5 26 0.5l14 -7l33 -16c12.667 -6 26 -11.667 40 -17s26 -8.33301 36 -9c38 -4.66699 69.333 2.83301 94 22.5s39.667 48.5 45 86.5l-36 4l-14 -21.5c-4.66699 -7 -10 -12.833 -16 -17.5s-12.833 -8 -20.5 -10s-16.834 -2 -27.501 0
c-2.66699 0.666992 -10 3.83398 -22 9.50098l-39.5 18l-40.5 18c-12.667 5.66699 -20.667 8.5 -24 8.5c-67.333 8 -114.666 -29 -141.999 -111z" />
    <glyph glyph-name="Ograve" unicode="&#xd2;" horiz-adv-x="918" 
d="M45 389c0 -116 39.667 -213.668 119 -293.001c79.333 -78.667 177.666 -118 294.999 -118s215.333 39.333 294 118c80 78.667 120 176.334 120 293.001s-40 214 -120 292c-78.667 78.667 -176.667 118 -294 118s-215.666 -39.333 -294.999 -118
c-79.333 -78 -119 -175.333 -119 -292zM283 388.999c0 78.667 10.668 146.333 32.001 203c28.667 76 76.667 114 144 114c85.333 0 140 -60.667 164 -182c8 -41.333 12 -86.333 12 -135c0 -82 -10 -149.333 -30 -202c-28.667 -76.667 -77.334 -115 -146.001 -115
c-85.333 0 -140 60.667 -164 182c-8 40 -12 85 -12 135zM537.001 832.998l-110 170h-112l150 -170h72z" />
    <glyph glyph-name="Oacute" unicode="&#xd3;" horiz-adv-x="918" 
d="M45 389c0 -116 39.667 -213.668 119 -293.001c79.333 -78.667 177.666 -118 294.999 -118s215.333 39.333 294 118c80 78.667 120 176.334 120 293.001s-40 214 -120 292c-78.667 78.667 -176.667 118 -294 118s-215.666 -39.333 -294.999 -118
c-79.333 -78 -119 -175.333 -119 -292zM283 388.999c0 78.667 10.668 146.333 32.001 203c28.667 76 76.667 114 144 114c85.333 0 140 -60.667 164 -182c8 -41.333 12 -86.333 12 -135c0 -82 -10 -149.333 -30 -202c-28.667 -76.667 -77.334 -115 -146.001 -115
c-85.333 0 -140 60.667 -164 182c-8 40 -12 85 -12 135zM405.001 830.998h72l150 170h-112z" />
    <glyph glyph-name="Ocircumflex" unicode="&#xd4;" horiz-adv-x="918" 
d="M45 389c0 -116 39.667 -213.668 119 -293.001c79.333 -78.667 177.666 -118 294.999 -118s215.333 39.333 294 118c80 78.667 120 176.334 120 293.001s-40 214 -120 292c-78.667 78.667 -176.667 118 -294 118s-215.666 -39.333 -294.999 -118
c-79.333 -78 -119 -175.333 -119 -292zM283 388.999c0 78.667 10.668 146.333 32.001 203c28.667 76 76.667 114 144 114c85.333 0 140 -60.667 164 -182c8 -41.333 12 -86.333 12 -135c0 -82 -10 -149.333 -30 -202c-28.667 -76.667 -77.334 -115 -146.001 -115
c-85.333 0 -140 60.667 -164 182c-8 40 -12 85 -12 135zM296.001 827.998h72l96 111l97 -111h72l-115 170h-112z" />
    <glyph glyph-name="Otilde" unicode="&#xd5;" horiz-adv-x="918" 
d="M45 389c0 -116 39.667 -213.668 119 -293.001c79.333 -78.667 177.666 -118 294.999 -118s215.333 39.333 294 118c80 78.667 120 176.334 120 293.001s-40 214 -120 292c-78.667 78.667 -176.667 118 -294 118s-215.666 -39.333 -294.999 -118
c-79.333 -78 -119 -175.333 -119 -292zM283 388.999c0 78.667 10.668 146.333 32.001 203c28.667 76 76.667 114 144 114c85.333 0 140 -60.667 164 -182c8 -41.333 12 -86.333 12 -135c0 -82 -10 -149.333 -30 -202c-28.667 -76.667 -77.334 -115 -146.001 -115
c-85.333 0 -140 60.667 -164 182c-8 40 -12 85 -12 135zM307.001 840.998c2.66699 6 6.33203 12.166 10.999 18.499s10.334 12 17.001 17s14 8.66699 22 11s16.667 2.5 26 0.5l14 -7l33 -16c12.667 -6 26 -11.667 40 -17s26 -8.33301 36 -9
c38 -4.66699 69.333 2.83301 94 22.5s39.667 48.5 45 86.5l-36 4l-14 -21.5c-4.66699 -7 -10 -12.833 -16 -17.5s-12.833 -8 -20.5 -10s-16.834 -2 -27.501 0c-2.66699 0.666992 -10 3.83398 -22 9.50098l-39.5 18l-40.5 18c-12.667 5.66699 -20.667 8.5 -24 8.5
c-67.333 8 -114.666 -29 -141.999 -111z" />
    <glyph glyph-name="Odieresis" unicode="&#xd6;" horiz-adv-x="918" 
d="M45 389c0 -116 39.667 -213.668 119 -293.001c79.333 -78.667 177.666 -118 294.999 -118s215.333 39.333 294 118c80 78.667 120 176.334 120 293.001s-40 214 -120 292c-78.667 78.667 -176.667 118 -294 118s-215.666 -39.333 -294.999 -118
c-79.333 -78 -119 -175.333 -119 -292zM283 388.999c0 78.667 10.668 146.333 32.001 203c28.667 76 76.667 114 144 114c85.333 0 140 -60.667 164 -182c8 -41.333 12 -86.333 12 -135c0 -82 -10 -149.333 -30 -202c-28.667 -76.667 -77.334 -115 -146.001 -115
c-85.333 0 -140 60.667 -164 182c-8 40 -12 85 -12 135zM534.001 943.998c-15.333 0 -28.166 -5.33301 -38.499 -16s-15.5 -23.667 -15.5 -39c0 -14.667 5.16699 -26.667 15.5 -36s23.166 -14 38.499 -14c14 0 26.167 4.83301 36.5 14.5s15.5 21.5 15.5 35.5
c0 15.333 -5 28.333 -15 39s-22.333 16 -37 16zM386.001 943.998c-14.667 0 -27 -5.33301 -37 -16s-15 -23.667 -15 -39c0 -14.667 5.16699 -26.667 15.5 -36s22.5 -14 36.5 -14c14.667 0 27.167 4.83301 37.5 14.5s15.5 21.5 15.5 35.5c0 15.333 -5 28.333 -15 39
s-22.667 16 -38 16z" />
    <glyph glyph-name="multiply" unicode="&#xd7;" horiz-adv-x="411" 
d="M316 150l81 81l-110 107l105 108l2 2l-86 84l-2 -1l-105 -109l-102 98l-80 -82l103 -100l-101 -108l84 -83l100 109z" />
    <glyph glyph-name="Oslash" unicode="&#xd8;" horiz-adv-x="918" 
d="M665 851l-52.002 10.999l-32 -79c-19.333 5.33301 -39.166 9.33301 -59.499 12s-41.166 4 -62.499 4c-117.333 0 -215.666 -39.333 -294.999 -118c-79.333 -78 -119 -175.333 -119 -292c0 -116 39.667 -213.667 119 -293c34 -34 70.667 -60.333 110 -79l-32 -80l52 -11
l29 72c43.333 -13.333 88.666 -20 135.999 -20c117.333 0 215.333 39.333 294 118c80 78.667 120 176.334 120 293.001s-40 214 -120 292c-37.333 36.667 -78.333 64.667 -123 84zM622.998 523.999c8 -41.333 12.001 -86.333 12.001 -135c0 -82 -10 -149.333 -30 -202
c-28.667 -76.667 -77.334 -115 -146.001 -115c-37.333 0 -68.333 11 -93 33l214 534c18.667 -28.667 33 -67 43 -115zM282.999 388.999c0 78.667 10.667 146.333 32 203c28.667 76 76.667 114 144 114c31.333 0 58.333 -8.33301 81 -25l-211 -528
c-14.667 26 -26 59.667 -34 101c-8 40 -12 85 -12 135z" />
    <glyph glyph-name="Ugrave" unicode="&#xd9;" horiz-adv-x="712" 
d="M45 248c0 -58.667 15.833 -109.5 47.5 -152.5s74.834 -74.833 129.501 -95.5c38 -14.667 81.667 -22 131 -22c91.333 0 164.666 19.667 219.999 59c62.667 44.667 94 111.667 94 201v540h-116v-521c0 -102 -47 -153 -141 -153c-48 0 -84.5 13.5 -109.5 40.5
s-37.5 64.5 -37.5 112.5v423c0 14.667 -2.83301 28.667 -8.5 42s-13.5 25 -23.5 35s-21.667 18 -35 24s-27.333 9 -42 9c-15.333 0 -29.5 -3 -42.5 -9s-24.5 -14 -34.5 -24s-17.833 -21.667 -23.5 -35s-8.5 -27.333 -8.5 -42v-432zM488 808l-110 170h-112l150 -170h72z" />
    <glyph glyph-name="Uacute" unicode="&#xda;" horiz-adv-x="712" 
d="M45 248c0 -58.667 15.833 -109.5 47.5 -152.5s74.834 -74.833 129.501 -95.5c38 -14.667 81.667 -22 131 -22c91.333 0 164.666 19.667 219.999 59c62.667 44.667 94 111.667 94 201v540h-116v-521c0 -102 -47 -153 -141 -153c-48 0 -84.5 13.5 -109.5 40.5
s-37.5 64.5 -37.5 112.5v423c0 14.667 -2.83301 28.667 -8.5 42s-13.5 25 -23.5 35s-21.667 18 -35 24s-27.333 9 -42 9c-15.333 0 -29.5 -3 -42.5 -9s-24.5 -14 -34.5 -24s-17.833 -21.667 -23.5 -35s-8.5 -27.333 -8.5 -42v-432zM309 815h72l150 170h-112z" />
    <glyph glyph-name="Ucircumflex" unicode="&#xdb;" horiz-adv-x="712" 
d="M45 248c0 -58.667 15.833 -109.5 47.5 -152.5s74.834 -74.833 129.501 -95.5c38 -14.667 81.667 -22 131 -22c91.333 0 164.666 19.667 219.999 59c62.667 44.667 94 111.667 94 201v540h-116v-521c0 -102 -47 -153 -141 -153c-48 0 -84.5 13.5 -109.5 40.5
s-37.5 64.5 -37.5 112.5v423c0 14.667 -2.83301 28.667 -8.5 42s-13.5 25 -23.5 35s-21.667 18 -35 24s-27.333 9 -42 9c-15.333 0 -29.5 -3 -42.5 -9s-24.5 -14 -34.5 -24s-17.833 -21.667 -23.5 -35s-8.5 -27.333 -8.5 -42v-432zM224 814h72l96 111l97 -111h72l-115 170
h-112z" />
    <glyph glyph-name="Udieresis" unicode="&#xdc;" horiz-adv-x="712" 
d="M45 248c0 -58.667 15.833 -109.5 47.5 -152.5s74.834 -74.833 129.501 -95.5c38 -14.667 81.667 -22 131 -22c91.333 0 164.666 19.667 219.999 59c62.667 44.667 94 111.667 94 201v540h-116v-521c0 -102 -47 -153 -141 -153c-48 0 -84.5 13.5 -109.5 40.5
s-37.5 64.5 -37.5 112.5v423c0 14.667 -2.83301 28.667 -8.5 42s-13.5 25 -23.5 35s-21.667 18 -35 24s-27.333 9 -42 9c-15.333 0 -29.5 -3 -42.5 -9s-24.5 -14 -34.5 -24s-17.833 -21.667 -23.5 -35s-8.5 -27.333 -8.5 -42v-432zM471 925
c-15.333 0 -28.166 -5.33301 -38.499 -16s-15.5 -23.667 -15.5 -39c0 -14.667 5.16699 -26.667 15.5 -36s23.166 -14 38.499 -14c14 0 26.167 4.83301 36.5 14.5s15.5 21.5 15.5 35.5c0 15.333 -5 28.333 -15 39s-22.333 16 -37 16zM323 925c-14.667 0 -27 -5.33301 -37 -16
s-15 -23.667 -15 -39c0 -14.667 5.16699 -26.667 15.5 -36s22.5 -14 36.5 -14c14.667 0 27.167 4.83301 37.5 14.5s15.5 21.5 15.5 35.5c0 15.333 -5 28.333 -15 39s-22.667 16 -38 16z" />
    <glyph glyph-name="Yacute" unicode="&#xdd;" horiz-adv-x="657" 
d="M195 372v-371.998h218v386l226 392h-114l-162 -285l-136 241c-8 16.667 -19.167 30.667 -33.5 42s-29.833 19.166 -46.5 23.499s-33.667 4.66602 -51 0.999023s-33 -12.167 -47 -25.5c-16 -14.667 -25.833 -32.167 -29.5 -52.5s-0.5 -39.5 9.5 -57.5zM281 790.002h72
l150 170h-112z" />
    <glyph glyph-name="Thorn" unicode="&#xde;" horiz-adv-x="719" 
d="M45 681v-682h218v88h76c46.667 0 90.834 4.66699 132.501 14s78.167 24.833 109.5 46.5s56.166 50.167 74.499 85.5s27.5 79.333 27.5 132c0 43.333 -4.66699 81.666 -14 114.999s-24.5 61.5 -45.5 84.5s-48.5 40.5 -82.5 52.5s-75.333 18 -124 18h-154v46
c0.666992 14 -2 27.667 -8 41s-14 25.333 -24 36s-21.667 19 -35 25s-27 8.66699 -41 8c-14 0.666992 -27.833 -2 -41.5 -8s-25.667 -14.167 -36 -24.5s-18.5 -22.166 -24.5 -35.499s-8.66699 -27.333 -8 -42zM463 367l-1.00098 0.000976562
c0.666992 -20.667 -0.333008 -41.167 -3 -61.5s-8.16699 -38.666 -16.5 -54.999s-20.333 -29.5 -36 -39.5s-36.167 -15 -61.5 -15h-82v350h70c26 0 47.5 -5 64.5 -15s30.333 -23.333 40 -40s16.334 -35.834 20.001 -57.501s5.5 -43.834 5.5 -66.501z" />
    <glyph glyph-name="agrave" unicode="&#xe0;" horiz-adv-x="668" 
d="M402 28l2.00195 -28h119c29.333 0 51.333 0.166992 66 0.5s24 0.833008 28 1.5s6 1.33398 6 2.00098v305c0 174 -99.333 261 -298 261h-224c-13.333 0 -24 -5.16699 -32 -15.5s-12 -22.5 -12 -36.5c0 -34.667 14.667 -52.667 44 -54h187c41.333 0 71.666 -14 90.999 -42
c-13.333 -2.66699 -26.333 -5 -39 -7s-25.834 -4.5 -39.501 -7.5l-43.5 -10c-15.333 -3.66699 -32.333 -8.16699 -51 -13.5c-22.667 -8.66699 -43.834 -18.167 -63.501 -28.5s-36.667 -22.333 -51 -36s-25.666 -29.5 -33.999 -47.5s-12.5 -38.333 -12.5 -61
c0 -36.667 7.5 -68.167 22.5 -94.5s34.833 -48 59.5 -65s53 -29.667 85 -38s65 -12.5 99 -12.5c18 0 33.667 2.16699 47 6.5s28 11.166 44 20.499zM405.002 379l-0.00195312 -263.002c-8 -14 -16.167 -23 -24.5 -27s-16.166 -5.33301 -23.499 -4
c-17.333 0 -33.5 3.33301 -48.5 10s-28 15.834 -39 27.501s-19.667 25 -26 40s-9.5 31.167 -9.5 48.5c0 27.333 2.66699 48.833 8 64.5s11 29.834 17 42.501c4.66699 8 10 14.833 16 20.5s14.333 10.667 25 15s24.334 8.5 41.001 12.5s38 8.33301 64 13zM420 607.998
l-110 170h-112l150 -170h72z" />
    <glyph glyph-name="aacute" unicode="&#xe1;" horiz-adv-x="668" 
d="M402 28l2.00195 -28h119c29.333 0 51.333 0.166992 66 0.5s24 0.833008 28 1.5s6 1.33398 6 2.00098v305c0 174 -99.333 261 -298 261h-224c-13.333 0 -24 -5.16699 -32 -15.5s-12 -22.5 -12 -36.5c0 -34.667 14.667 -52.667 44 -54h187c41.333 0 71.666 -14 90.999 -42
c-13.333 -2.66699 -26.333 -5 -39 -7s-25.834 -4.5 -39.501 -7.5l-43.5 -10c-15.333 -3.66699 -32.333 -8.16699 -51 -13.5c-22.667 -8.66699 -43.834 -18.167 -63.501 -28.5s-36.667 -22.333 -51 -36s-25.666 -29.5 -33.999 -47.5s-12.5 -38.333 -12.5 -61
c0 -36.667 7.5 -68.167 22.5 -94.5s34.833 -48 59.5 -65s53 -29.667 85 -38s65 -12.5 99 -12.5c18 0 33.667 2.16699 47 6.5s28 11.166 44 20.499zM405.002 379l-0.00195312 -263.002c-8 -14 -16.167 -23 -24.5 -27s-16.166 -5.33301 -23.499 -4
c-17.333 0 -33.5 3.33301 -48.5 10s-28 15.834 -39 27.501s-19.667 25 -26 40s-9.5 31.167 -9.5 48.5c0 27.333 2.66699 48.833 8 64.5s11 29.834 17 42.501c4.66699 8 10 14.833 16 20.5s14.333 10.667 25 15s24.334 8.5 41.001 12.5s38 8.33301 64 13zM251 599.998h72
l150 170h-112z" />
    <glyph glyph-name="acircumflex" unicode="&#xe2;" horiz-adv-x="668" 
d="M402 28l2.00195 -28h119c29.333 0 51.333 0.166992 66 0.5s24 0.833008 28 1.5s6 1.33398 6 2.00098v305c0 174 -99.333 261 -298 261h-224c-13.333 0 -24 -5.16699 -32 -15.5s-12 -22.5 -12 -36.5c0 -34.667 14.667 -52.667 44 -54h187c41.333 0 71.666 -14 90.999 -42
c-13.333 -2.66699 -26.333 -5 -39 -7s-25.834 -4.5 -39.501 -7.5l-43.5 -10c-15.333 -3.66699 -32.333 -8.16699 -51 -13.5c-22.667 -8.66699 -43.834 -18.167 -63.501 -28.5s-36.667 -22.333 -51 -36s-25.666 -29.5 -33.999 -47.5s-12.5 -38.333 -12.5 -61
c0 -36.667 7.5 -68.167 22.5 -94.5s34.833 -48 59.5 -65s53 -29.667 85 -38s65 -12.5 99 -12.5c18 0 33.667 2.16699 47 6.5s28 11.166 44 20.499zM405.002 379l-0.00195312 -263.002c-8 -14 -16.167 -23 -24.5 -27s-16.166 -5.33301 -23.499 -4
c-17.333 0 -33.5 3.33301 -48.5 10s-28 15.834 -39 27.501s-19.667 25 -26 40s-9.5 31.167 -9.5 48.5c0 27.333 2.66699 48.833 8 64.5s11 29.834 17 42.501c4.66699 8 10 14.833 16 20.5s14.333 10.667 25 15s24.334 8.5 41.001 12.5s38 8.33301 64 13zM157 607.998h72
l96 111l97 -111h72l-115 170h-112z" />
    <glyph glyph-name="atilde" unicode="&#xe3;" horiz-adv-x="668" 
d="M402 28l2.00195 -28h119c29.333 0 51.333 0.166992 66 0.5s24 0.833008 28 1.5s6 1.33398 6 2.00098v305c0 174 -99.333 261 -298 261h-224c-13.333 0 -24 -5.16699 -32 -15.5s-12 -22.5 -12 -36.5c0 -34.667 14.667 -52.667 44 -54h187c41.333 0 71.666 -14 90.999 -42
c-13.333 -2.66699 -26.333 -5 -39 -7s-25.834 -4.5 -39.501 -7.5l-43.5 -10c-15.333 -3.66699 -32.333 -8.16699 -51 -13.5c-22.667 -8.66699 -43.834 -18.167 -63.501 -28.5s-36.667 -22.333 -51 -36s-25.666 -29.5 -33.999 -47.5s-12.5 -38.333 -12.5 -61
c0 -36.667 7.5 -68.167 22.5 -94.5s34.833 -48 59.5 -65s53 -29.667 85 -38s65 -12.5 99 -12.5c18 0 33.667 2.16699 47 6.5s28 11.166 44 20.499zM405.002 379l-0.00195312 -263.002c-8 -14 -16.167 -23 -24.5 -27s-16.166 -5.33301 -23.499 -4
c-17.333 0 -33.5 3.33301 -48.5 10s-28 15.834 -39 27.501s-19.667 25 -26 40s-9.5 31.167 -9.5 48.5c0 27.333 2.66699 48.833 8 64.5s11 29.834 17 42.501c4.66699 8 10 14.833 16 20.5s14.333 10.667 25 15s24.334 8.5 41.001 12.5s38 8.33301 64 13zM174 623.998
c2.66699 6 6.33203 12.166 10.999 18.499s10.334 12 17.001 17s14 8.66699 22 11s16.667 2.5 26 0.5l14 -7l33 -16c12.667 -6 26 -11.667 40 -17s26 -8.33301 36 -9c38 -4.66699 69.333 2.83301 94 22.5s39.667 48.5 45 86.5l-36 4l-14 -21.5
c-4.66699 -7 -10 -12.833 -16 -17.5s-12.833 -8 -20.5 -10s-16.834 -2 -27.501 0c-2.66699 0.666992 -10 3.83398 -22 9.50098l-39.5 18l-40.5 18c-12.667 5.66699 -20.667 8.5 -24 8.5c-67.333 8 -114.666 -29 -141.999 -111z" />
    <glyph glyph-name="adieresis" unicode="&#xe4;" horiz-adv-x="668" 
d="M402 28l2.00195 -28h119c29.333 0 51.333 0.166992 66 0.5s24 0.833008 28 1.5s6 1.33398 6 2.00098v305c0 174 -99.333 261 -298 261h-224c-13.333 0 -24 -5.16699 -32 -15.5s-12 -22.5 -12 -36.5c0 -34.667 14.667 -52.667 44 -54h187c41.333 0 71.666 -14 90.999 -42
c-13.333 -2.66699 -26.333 -5 -39 -7s-25.834 -4.5 -39.501 -7.5l-43.5 -10c-15.333 -3.66699 -32.333 -8.16699 -51 -13.5c-22.667 -8.66699 -43.834 -18.167 -63.501 -28.5s-36.667 -22.333 -51 -36s-25.666 -29.5 -33.999 -47.5s-12.5 -38.333 -12.5 -61
c0 -36.667 7.5 -68.167 22.5 -94.5s34.833 -48 59.5 -65s53 -29.667 85 -38s65 -12.5 99 -12.5c18 0 33.667 2.16699 47 6.5s28 11.166 44 20.499zM405.002 379l-0.00195312 -263.002c-8 -14 -16.167 -23 -24.5 -27s-16.166 -5.33301 -23.499 -4
c-17.333 0 -33.5 3.33301 -48.5 10s-28 15.834 -39 27.501s-19.667 25 -26 40s-9.5 31.167 -9.5 48.5c0 27.333 2.66699 48.833 8 64.5s11 29.834 17 42.501c4.66699 8 10 14.833 16 20.5s14.333 10.667 25 15s24.334 8.5 41.001 12.5s38 8.33301 64 13zM411 745.998
c-15.333 0 -28.166 -5.33301 -38.499 -16s-15.5 -23.667 -15.5 -39c0 -14.667 5.16699 -26.667 15.5 -36s23.166 -14 38.499 -14c14 0 26.167 4.83301 36.5 14.5s15.5 21.5 15.5 35.5c0 15.333 -5 28.333 -15 39s-22.333 16 -37 16zM263 745.998
c-14.667 0 -27 -5.33301 -37 -16s-15 -23.667 -15 -39c0 -14.667 5.16699 -26.667 15.5 -36s22.5 -14 36.5 -14c14.667 0 27.167 4.83301 37.5 14.5s15.5 21.5 15.5 35.5c0 15.333 -5 28.333 -15 39s-22.667 16 -38 16z" />
    <glyph glyph-name="aring" unicode="&#xe5;" horiz-adv-x="668" 
d="M402 28l2.00195 -28h119c29.333 0 51.333 0.166992 66 0.5s24 0.833008 28 1.5s6 1.33398 6 2.00098v305c0 174 -99.333 261 -298 261h-224c-13.333 0 -24 -5.16699 -32 -15.5s-12 -22.5 -12 -36.5c0 -34.667 14.667 -52.667 44 -54h187c41.333 0 71.666 -14 90.999 -42
c-13.333 -2.66699 -26.333 -5 -39 -7s-25.834 -4.5 -39.501 -7.5l-43.5 -10c-15.333 -3.66699 -32.333 -8.16699 -51 -13.5c-22.667 -8.66699 -43.834 -18.167 -63.501 -28.5s-36.667 -22.333 -51 -36s-25.666 -29.5 -33.999 -47.5s-12.5 -38.333 -12.5 -61
c0 -36.667 7.5 -68.167 22.5 -94.5s34.833 -48 59.5 -65s53 -29.667 85 -38s65 -12.5 99 -12.5c18 0 33.667 2.16699 47 6.5s28 11.166 44 20.499zM222.002 720c0 -35.333 12.334 -65.333 37.001 -90s54.667 -37 90 -37s65 12.333 89 37c24.667 24.667 37 54.667 37 90
c0 34.667 -12.333 64.334 -37 89.001s-54.334 37 -89.001 37c-35.333 0 -65.333 -12.333 -90 -37s-37 -54.334 -37 -89.001zM405.003 379l-0.00195312 -263.002c-8 -14 -16.167 -23 -24.5 -27s-16.166 -5.33301 -23.499 -4c-17.333 0 -33.5 3.33301 -48.5 10
s-28 15.834 -39 27.501s-19.667 25 -26 40s-9.5 31.167 -9.5 48.5c0 27.333 2.66699 48.833 8 64.5s11 29.834 17 42.501c4.66699 8 10 14.833 16 20.5s14.333 10.667 25 15s24.334 8.5 41.001 12.5s38 8.33301 64 13zM281.001 719.998c0 18.667 6.66699 34.5 20 47.5
s29.333 19.5 48 19.5s34.5 -6.5 47.5 -19.5s19.5 -28.833 19.5 -47.5s-6.5 -34.667 -19.5 -48s-28.833 -20 -47.5 -20s-34.667 6.66699 -48 20s-20 29.333 -20 48z" />
    <glyph glyph-name="ae" unicode="&#xe6;" horiz-adv-x="1049" 
d="M624 258h399.003l3 5c4 50.667 -0.666992 96 -14 136s-33.5 73.5 -60.5 100.5s-59.667 47.667 -98 62s-80.5 21.5 -126.5 21.5c-38 0 -74.5 -5 -109.5 -15s-66.5 -24.667 -94.5 -44c-48.667 30.667 -114.667 46 -198 46h-224c-13.333 0 -24 -5.16699 -32 -15.5
s-12 -22.5 -12 -36.5c0 -34.667 14.667 -52.667 44 -54h187c41.333 0 71.666 -14 90.999 -42c-13.333 -2.66699 -26.333 -5 -39 -7s-25.834 -4.5 -39.501 -7.5l-43.5 -10c-15.333 -3.66699 -32.333 -8.16699 -51 -13.5c-22.667 -8.66699 -43.834 -18.167 -63.501 -28.5
s-36.667 -22.333 -51 -36s-25.666 -29.5 -33.999 -47.5s-12.5 -38.333 -12.5 -61c0 -36.667 7.5 -68.167 22.5 -94.5s34.833 -48 59.5 -65s53 -29.667 85 -38s65 -12.5 99 -12.5c18 0 39.333 2.83301 64 8.5s49 16.834 73 33.501l62 57
c14.667 -22 28.834 -39.5 42.501 -52.5s28.834 -23 45.501 -30s36.167 -11.833 58.5 -14.5s50.166 -4.33398 83.499 -5.00098c28.667 0 57.667 4.33301 87 13s55.666 20 78.999 34s42.333 29.5 57 46.5s21.667 33.5 21 49.5c-0.666992 18.667 -7.83398 34 -21.501 46
s-29.834 18 -48.501 18c-17.333 0 -30.5 -4 -39.5 -12l-28.5 -26c-10 -9.33301 -22.5 -17.833 -37.5 -25.5s-36.5 -11.167 -64.5 -10.5c-36 1.33301 -64.167 12.333 -84.5 33s-32.166 52 -35.499 94zM405.003 379l-0.00195312 -263.002c-8 -14 -16.167 -23 -24.5 -27
s-16.166 -5.33301 -23.499 -4c-17.333 0 -33.5 3.33301 -48.5 10s-28 15.834 -39 27.501s-19.667 25 -26 40s-9.5 31.167 -9.5 48.5c0 27.333 2.66699 48.833 8 64.5s11 29.834 17 42.501c4.66699 8 10 14.833 16 20.5s14.333 10.667 25 15s24.334 8.5 41.001 12.5
s38 8.33301 64 13zM857.001 370.998h-226.001c16.667 58.667 52.667 88 108 88c32 0 58.667 -7.66699 80 -23c12.667 -9.33301 21.334 -19 26.001 -29s8.66699 -22 12 -36z" />
    <glyph glyph-name="ccedilla" unicode="&#xe7;" horiz-adv-x="671" 
d="M368 -221l54.999 204c44 4.66699 82.167 17.167 114.5 37.5s62.166 50.166 89.499 89.499c7.33301 11.333 11 23 11 35c0 18.667 -6.83301 34 -20.5 46s-30.167 18 -49.5 18c-20 0 -37.667 -8.66699 -53 -26l-32.5 -33.5c-8.33301 -9 -16.833 -16.167 -25.5 -21.5
s-18.5 -9 -29.5 -11s-25.833 -3 -44.5 -3c-42 0 -74 18 -96 54c-18 30 -27 67.667 -27 113s8.33301 81.666 25 108.999c20.667 34.667 51.667 52 93 52c14.667 0 27.834 -2 39.501 -6s22.5 -9.16699 32.5 -15.5s19.167 -13.166 27.5 -20.499l24.5 -21
c18 -15.333 35.667 -23 53 -23c18.667 0 35.167 6.33301 49.5 19s21.5 28.334 21.5 47.001c0 13.333 -4.33301 26.333 -13 39c-34 39.333 -70.667 67 -110 83c-35.333 14.667 -81 22 -137 22c-90.667 0 -165.667 -25.333 -225 -76c-64 -53.333 -96 -124.333 -96 -213
c0 -86.667 34.667 -158.667 104 -216c44.667 -36.667 95.334 -60.667 152.001 -72c0.666992 -1.33301 1 -2.33301 1 -3s0.333008 -1.66699 1 -3l53 -207z" />
    <glyph glyph-name="egrave" unicode="&#xe8;" horiz-adv-x="698" 
d="M263 241h399.005l3 5c4 50.667 -0.666992 96 -14 136s-33.5 73.5 -60.5 100.5s-59.667 47.667 -98 62s-80.5 21.5 -126.5 21.5c-43.333 0 -84.666 -6.5 -123.999 -19.5s-73.833 -32 -103.5 -57s-53 -55.333 -70 -91s-24.833 -76.167 -23.5 -121.5
c1.33301 -50 10.166 -93.5 26.499 -130.5s39.166 -67.667 68.499 -92s64.166 -42.5 104.499 -54.5s85.166 -18.333 134.499 -19c28.667 0 57.667 4.33301 87 13s55.666 20 78.999 34s42.333 29.5 57 46.5s21.667 33.5 21 49.5c-0.666992 18.667 -7.83398 34 -21.501 46
s-29.834 18 -48.501 18c-17.333 0 -30.5 -4 -39.5 -12l-28.5 -26c-10 -9.33301 -22.5 -17.833 -37.5 -25.5s-36.5 -11.167 -64.5 -10.5c-36 1.33301 -64.167 12.333 -84.5 33s-32.166 52 -35.499 94zM429.005 606l-110 170h-112l150 -170h72zM496.005 354h-226.001
c16.667 58.667 52.667 88 108 88c32 0 58.667 -7.66699 80 -23c12.667 -9.33301 21.334 -19 26.001 -29s8.66699 -22 12 -36z" />
    <glyph glyph-name="eacute" unicode="&#xe9;" horiz-adv-x="698" 
d="M263 241h399.005l3 5c4 50.667 -0.666992 96 -14 136s-33.5 73.5 -60.5 100.5s-59.667 47.667 -98 62s-80.5 21.5 -126.5 21.5c-43.333 0 -84.666 -6.5 -123.999 -19.5s-73.833 -32 -103.5 -57s-53 -55.333 -70 -91s-24.833 -76.167 -23.5 -121.5
c1.33301 -50 10.166 -93.5 26.499 -130.5s39.166 -67.667 68.499 -92s64.166 -42.5 104.499 -54.5s85.166 -18.333 134.499 -19c28.667 0 57.667 4.33301 87 13s55.666 20 78.999 34s42.333 29.5 57 46.5s21.667 33.5 21 49.5c-0.666992 18.667 -7.83398 34 -21.501 46
s-29.834 18 -48.501 18c-17.333 0 -30.5 -4 -39.5 -12l-28.5 -26c-10 -9.33301 -22.5 -17.833 -37.5 -25.5s-36.5 -11.167 -64.5 -10.5c-36 1.33301 -64.167 12.333 -84.5 33s-32.166 52 -35.499 94zM280.005 604h72l150 170h-112zM496.005 354h-226.001
c16.667 58.667 52.667 88 108 88c32 0 58.667 -7.66699 80 -23c12.667 -9.33301 21.334 -19 26.001 -29s8.66699 -22 12 -36z" />
    <glyph glyph-name="ecircumflex" unicode="&#xea;" horiz-adv-x="698" 
d="M263 241h399.005l3 5c4 50.667 -0.666992 96 -14 136s-33.5 73.5 -60.5 100.5s-59.667 47.667 -98 62s-80.5 21.5 -126.5 21.5c-43.333 0 -84.666 -6.5 -123.999 -19.5s-73.833 -32 -103.5 -57s-53 -55.333 -70 -91s-24.833 -76.167 -23.5 -121.5
c1.33301 -50 10.166 -93.5 26.499 -130.5s39.166 -67.667 68.499 -92s64.166 -42.5 104.499 -54.5s85.166 -18.333 134.499 -19c28.667 0 57.667 4.33301 87 13s55.666 20 78.999 34s42.333 29.5 57 46.5s21.667 33.5 21 49.5c-0.666992 18.667 -7.83398 34 -21.501 46
s-29.834 18 -48.501 18c-17.333 0 -30.5 -4 -39.5 -12l-28.5 -26c-10 -9.33301 -22.5 -17.833 -37.5 -25.5s-36.5 -11.167 -64.5 -10.5c-36 1.33301 -64.167 12.333 -84.5 33s-32.166 52 -35.499 94zM201.005 610h72l96 111l97 -111h72l-115 170h-112zM496.005 354h-226.001
c16.667 58.667 52.667 88 108 88c32 0 58.667 -7.66699 80 -23c12.667 -9.33301 21.334 -19 26.001 -29s8.66699 -22 12 -36z" />
    <glyph glyph-name="edieresis" unicode="&#xeb;" horiz-adv-x="698" 
d="M263 241h399.005l3 5c4 50.667 -0.666992 96 -14 136s-33.5 73.5 -60.5 100.5s-59.667 47.667 -98 62s-80.5 21.5 -126.5 21.5c-43.333 0 -84.666 -6.5 -123.999 -19.5s-73.833 -32 -103.5 -57s-53 -55.333 -70 -91s-24.833 -76.167 -23.5 -121.5
c1.33301 -50 10.166 -93.5 26.499 -130.5s39.166 -67.667 68.499 -92s64.166 -42.5 104.499 -54.5s85.166 -18.333 134.499 -19c28.667 0 57.667 4.33301 87 13s55.666 20 78.999 34s42.333 29.5 57 46.5s21.667 33.5 21 49.5c-0.666992 18.667 -7.83398 34 -21.501 46
s-29.834 18 -48.501 18c-17.333 0 -30.5 -4 -39.5 -12l-28.5 -26c-10 -9.33301 -22.5 -17.833 -37.5 -25.5s-36.5 -11.167 -64.5 -10.5c-36 1.33301 -64.167 12.333 -84.5 33s-32.166 52 -35.499 94zM496.005 354h-226.001c16.667 58.667 52.667 88 108 88
c32 0 58.667 -7.66699 80 -23c12.667 -9.33301 21.334 -19 26.001 -29s8.66699 -22 12 -36zM437.004 735c-15.333 0 -28.166 -5.33301 -38.499 -16s-15.5 -23.667 -15.5 -39c0 -14.667 5.16699 -26.667 15.5 -36s23.166 -14 38.499 -14c14 0 26.167 4.83301 36.5 14.5
s15.5 21.5 15.5 35.5c0 15.333 -5 28.333 -15 39s-22.333 16 -37 16zM289.004 735c-14.667 0 -27 -5.33301 -37 -16s-15 -23.667 -15 -39c0 -14.667 5.16699 -26.667 15.5 -36s22.5 -14 36.5 -14c14.667 0 27.167 4.83301 37.5 14.5s15.5 21.5 15.5 35.5
c0 15.333 -5 28.333 -15 39s-22.667 16 -38 16z" />
    <glyph glyph-name="igrave" unicode="&#xec;" horiz-adv-x="311" 
d="M265 450c0.666992 14.667 -2 28.667 -8 42s-14.333 25 -25 35s-22.667 18 -36 24s-27 9 -41 9c-14.667 0 -28.667 -3 -42 -9s-25 -14 -35 -24s-18 -21.667 -24 -35s-9 -27.333 -9 -42v-448h220v448zM242 608l-110 170h-112l150 -170h72z" />
    <glyph glyph-name="iacute" unicode="&#xed;" horiz-adv-x="311" 
d="M265 450c0.666992 14.667 -2 28.667 -8 42s-14.333 25 -25 35s-22.667 18 -36 24s-27 9 -41 9c-14.667 0 -28.667 -3 -42 -9s-25 -14 -35 -24s-18 -21.667 -24 -35s-9 -27.333 -9 -42v-448h220v448zM87 608h72l150 170h-112z" />
    <glyph glyph-name="icircumflex" unicode="&#xee;" horiz-adv-x="311" 
d="M265 450c0.666992 14.667 -2 28.667 -8 42s-14.333 25 -25 35s-22.667 18 -36 24s-27 9 -41 9c-14.667 0 -28.667 -3 -42 -9s-25 -14 -35 -24s-18 -21.667 -24 -35s-9 -27.333 -9 -42v-448h220v448zM-16 608h72l96 111l97 -111h72l-115 170h-112z" />
    <glyph glyph-name="idieresis" unicode="&#xef;" horiz-adv-x="311" 
d="M265 450c0.666992 14.667 -2 28.667 -8 42s-14.333 25 -25 35s-22.667 18 -36 24s-27 9 -41 9c-14.667 0 -28.667 -3 -42 -9s-25 -14 -35 -24s-18 -21.667 -24 -35s-9 -27.333 -9 -42v-448h220v448zM231 737c-15.333 0 -28.166 -5.33301 -38.499 -16
s-15.5 -23.667 -15.5 -39c0 -14.667 5.16699 -26.667 15.5 -36s23.166 -14 38.499 -14c14 0 26.167 4.83301 36.5 14.5s15.5 21.5 15.5 35.5c0 15.333 -5 28.333 -15 39s-22.333 16 -37 16zM83 737c-14.667 0 -27 -5.33301 -37 -16s-15 -23.667 -15 -39
c0 -14.667 5.16699 -26.667 15.5 -36s22.5 -14 36.5 -14c14.667 0 27.167 4.83301 37.5 14.5s15.5 21.5 15.5 35.5c0 15.333 -5 28.333 -15 39s-22.667 16 -38 16z" />
    <glyph glyph-name="eth" unicode="&#xf0;" horiz-adv-x="653" 
d="M459 752l-42.999 -15.998l-35 74h-232l70 -145l-40 -14l23 -65l47 17l58 -119c-7.33301 0.666992 -14.333 1.16699 -21 1.5s-12.667 0.5 -18 0.5c-30 0 -58.333 -4.83301 -85 -14.5s-50.334 -23.334 -71.001 -41.001s-37 -39 -49 -64s-18 -52.833 -18 -83.5
c0 -40.667 7.5 -78.334 22.5 -113.001s35.667 -64.667 62 -90s57.166 -45.166 92.499 -59.499s73 -21.5 113 -21.5c82.667 0 148.334 21.667 197.001 65c28 25.333 47.833 54.333 59.5 87s17 67 16 103s-7.16699 72.667 -18.5 110s-26 73.666 -44 108.999l-98 201l35 13z
M249.001 235.002c0 12 1.00098 26.5 3.00098 43.5s5.66699 33.333 11 49s12.833 28.834 22.5 39.501s21.5 16 35.5 16c14.667 0 26.667 -4.83301 36 -14.5s16.666 -21.834 21.999 -36.501s9 -30.667 11 -48s3 -33.666 3 -48.999c0 -12 -1 -26.5 -3 -43.5
s-5.66699 -33.167 -11 -48.5s-12.666 -28.333 -21.999 -39s-21.333 -16 -36 -16c-16 0 -28.5 4.66699 -37.5 14s-15.833 21.333 -20.5 36s-7.83398 30.667 -9.50098 48s-3.16699 33.666 -4.5 48.999z" />
    <glyph glyph-name="ntilde" unicode="&#xf1;" 
d="M262 571h-216.998v-571l217 1v418c7.33301 12.667 16.5 22.334 27.5 29.001s21.833 11.5 32.5 14.5s20.167 4.66699 28.5 5s13.166 0.5 14.499 0.5c20 -0.666992 36.5 -4.5 49.5 -11.5s23.167 -18 30.5 -33s12.5 -34.833 15.5 -59.5s4.5 -55.334 4.5 -92.001v-201
c0 -13.333 3.5 -24.666 10.5 -33.999s15.667 -16.833 26 -22.5s22 -9.83398 35 -12.501s25.5 -4 37.5 -4s24.5 1.33301 37.5 4s24.667 6.83398 35 12.501s18.833 13.167 25.5 22.5s10 20.666 10 33.999v119v79c0 20.667 -0.166992 36.667 -0.5 48s-0.666016 20 -0.999023 26
s-0.666016 10.333 -0.999023 13s-0.833008 5.66699 -1.5 9c-6 32.667 -15.667 62 -29 88s-31.5 48 -54.5 66s-51.5 32 -85.5 42s-74.333 15.667 -121 17c-5.33301 0 -12.833 -0.666992 -22.5 -2s-20.334 -3.83301 -32.001 -7.5s-23.834 -8.5 -36.501 -14.5
s-24.334 -14 -35.001 -24v41zM200.002 624c2.66699 6 6.33203 12.166 10.999 18.499s10.334 12 17.001 17s14 8.66699 22 11s16.667 2.5 26 0.5l14 -7l33 -16c12.667 -6 26 -11.667 40 -17s26 -8.33301 36 -9c38 -4.66699 69.333 2.83301 94 22.5s39.667 48.5 45 86.5l-36 4
l-14 -21.5c-4.66699 -7 -10 -12.833 -16 -17.5s-12.833 -8 -20.5 -10s-16.834 -2 -27.501 0c-2.66699 0.666992 -10 3.83398 -22 9.50098l-39.5 18l-40.5 18c-12.667 5.66699 -20.667 8.5 -24 8.5c-67.333 8 -114.666 -29 -141.999 -111z" />
    <glyph glyph-name="ograve" unicode="&#xf2;" horiz-adv-x="748" 
d="M374 -13c42.667 -1.33301 83.833 5.33398 123.5 20.001s74.834 35.334 105.501 62.001s55 58.5 73 95.5s27 77.167 27 120.5c0 44.667 -9 85.334 -27 122.001s-42.167 68 -72.5 94s-65.333 46.167 -105 60.5s-81.167 21.5 -124.5 21.5s-84.833 -7.16699 -124.5 -21.5
s-74.667 -34.5 -105 -60.5s-54.5 -57.333 -72.5 -94s-27 -77.334 -27 -122.001c0 -43.333 9 -83.5 27 -120.5s42.333 -68.833 73 -95.5s65.667 -47.334 105 -62.001s80.666 -21.334 123.999 -20.001zM373.999 473c13.333 0 26.6689 -2.5 40.002 -7.5
s25.166 -14.5 35.499 -28.5s18.833 -33.167 25.5 -57.5s10 -55.833 10 -94.5c0 -62 -9.83301 -108.833 -29.5 -140.5s-46.834 -47.5 -81.501 -47.5s-61.834 15.833 -81.501 47.5s-29.5 78.5 -29.5 140.5s9.83301 108.833 29.5 140.5s46.834 47.5 81.501 47.5zM444.002 603
l-110 170h-112l150 -170h72z" />
    <glyph glyph-name="oacute" unicode="&#xf3;" horiz-adv-x="748" 
d="M374 -13c42.667 -1.33301 83.833 5.33398 123.5 20.001s74.834 35.334 105.501 62.001s55 58.5 73 95.5s27 77.167 27 120.5c0 44.667 -9 85.334 -27 122.001s-42.167 68 -72.5 94s-65.333 46.167 -105 60.5s-81.167 21.5 -124.5 21.5s-84.833 -7.16699 -124.5 -21.5
s-74.667 -34.5 -105 -60.5s-54.5 -57.333 -72.5 -94s-27 -77.334 -27 -122.001c0 -43.333 9 -83.5 27 -120.5s42.333 -68.833 73 -95.5s65.667 -47.334 105 -62.001s80.666 -21.334 123.999 -20.001zM373.999 473c13.333 0 26.6689 -2.5 40.002 -7.5
s25.166 -14.5 35.499 -28.5s18.833 -33.167 25.5 -57.5s10 -55.833 10 -94.5c0 -62 -9.83301 -108.833 -29.5 -140.5s-46.834 -47.5 -81.501 -47.5s-61.834 15.833 -81.501 47.5s-29.5 78.5 -29.5 140.5s9.83301 108.833 29.5 140.5s46.834 47.5 81.501 47.5zM315.002 600
h72l150 170h-112z" />
    <glyph glyph-name="ocircumflex" unicode="&#xf4;" horiz-adv-x="748" 
d="M374 -13c42.667 -1.33301 83.833 5.33398 123.5 20.001s74.834 35.334 105.501 62.001s55 58.5 73 95.5s27 77.167 27 120.5c0 44.667 -9 85.334 -27 122.001s-42.167 68 -72.5 94s-65.333 46.167 -105 60.5s-81.167 21.5 -124.5 21.5s-84.833 -7.16699 -124.5 -21.5
s-74.667 -34.5 -105 -60.5s-54.5 -57.333 -72.5 -94s-27 -77.334 -27 -122.001c0 -43.333 9 -83.5 27 -120.5s42.333 -68.833 73 -95.5s65.667 -47.334 105 -62.001s80.666 -21.334 123.999 -20.001zM373.999 473c13.333 0 26.6689 -2.5 40.002 -7.5
s25.166 -14.5 35.499 -28.5s18.833 -33.167 25.5 -57.5s10 -55.833 10 -94.5c0 -62 -9.83301 -108.833 -29.5 -140.5s-46.834 -47.5 -81.501 -47.5s-61.834 15.833 -81.501 47.5s-29.5 78.5 -29.5 140.5s9.83301 108.833 29.5 140.5s46.834 47.5 81.501 47.5zM202.002 602
h72l96 111l97 -111h72l-115 170h-112z" />
    <glyph glyph-name="otilde" unicode="&#xf5;" horiz-adv-x="748" 
d="M374 -13c42.667 -1.33301 83.833 5.33398 123.5 20.001s74.834 35.334 105.501 62.001s55 58.5 73 95.5s27 77.167 27 120.5c0 44.667 -9 85.334 -27 122.001s-42.167 68 -72.5 94s-65.333 46.167 -105 60.5s-81.167 21.5 -124.5 21.5s-84.833 -7.16699 -124.5 -21.5
s-74.667 -34.5 -105 -60.5s-54.5 -57.333 -72.5 -94s-27 -77.334 -27 -122.001c0 -43.333 9 -83.5 27 -120.5s42.333 -68.833 73 -95.5s65.667 -47.334 105 -62.001s80.666 -21.334 123.999 -20.001zM373.999 473c13.333 0 26.6689 -2.5 40.002 -7.5
s25.166 -14.5 35.499 -28.5s18.833 -33.167 25.5 -57.5s10 -55.833 10 -94.5c0 -62 -9.83301 -108.833 -29.5 -140.5s-46.834 -47.5 -81.501 -47.5s-61.834 15.833 -81.501 47.5s-29.5 78.5 -29.5 140.5s9.83301 108.833 29.5 140.5s46.834 47.5 81.501 47.5zM220.002 614
c2.66699 6 6.33203 12.166 10.999 18.499s10.334 12 17.001 17s14 8.66699 22 11s16.667 2.5 26 0.5l14 -7l33 -16c12.667 -6 26 -11.667 40 -17s26 -8.33301 36 -9c38 -4.66699 69.333 2.83301 94 22.5s39.667 48.5 45 86.5l-36 4l-14 -21.5
c-4.66699 -7 -10 -12.833 -16 -17.5s-12.833 -8 -20.5 -10s-16.834 -2 -27.501 0c-2.66699 0.666992 -10 3.83398 -22 9.50098l-39.5 18l-40.5 18c-12.667 5.66699 -20.667 8.5 -24 8.5c-67.333 8 -114.666 -29 -141.999 -111z" />
    <glyph glyph-name="odieresis" unicode="&#xf6;" horiz-adv-x="748" 
d="M374 -13c42.667 -1.33301 83.833 5.33398 123.5 20.001s74.834 35.334 105.501 62.001s55 58.5 73 95.5s27 77.167 27 120.5c0 44.667 -9 85.334 -27 122.001s-42.167 68 -72.5 94s-65.333 46.167 -105 60.5s-81.167 21.5 -124.5 21.5s-84.833 -7.16699 -124.5 -21.5
s-74.667 -34.5 -105 -60.5s-54.5 -57.333 -72.5 -94s-27 -77.334 -27 -122.001c0 -43.333 9 -83.5 27 -120.5s42.333 -68.833 73 -95.5s65.667 -47.334 105 -62.001s80.666 -21.334 123.999 -20.001zM373.999 473c13.333 0 26.6689 -2.5 40.002 -7.5
s25.166 -14.5 35.499 -28.5s18.833 -33.167 25.5 -57.5s10 -55.833 10 -94.5c0 -62 -9.83301 -108.833 -29.5 -140.5s-46.834 -47.5 -81.501 -47.5s-61.834 15.833 -81.501 47.5s-29.5 78.5 -29.5 140.5s9.83301 108.833 29.5 140.5s46.834 47.5 81.501 47.5zM447.002 749
c-15.333 0 -28.166 -5.33301 -38.499 -16s-15.5 -23.667 -15.5 -39c0 -14.667 5.16699 -26.667 15.5 -36s23.166 -14 38.499 -14c14 0 26.167 4.83301 36.5 14.5s15.5 21.5 15.5 35.5c0 15.333 -5 28.333 -15 39s-22.333 16 -37 16zM299.002 749
c-14.667 0 -27 -5.33301 -37 -16s-15 -23.667 -15 -39c0 -14.667 5.16699 -26.667 15.5 -36s22.5 -14 36.5 -14c14.667 0 27.167 4.83301 37.5 14.5s15.5 21.5 15.5 35.5c0 15.333 -5 28.333 -15 39s-22.667 16 -38 16z" />
    <glyph glyph-name="divide" unicode="&#xf7;" horiz-adv-x="504" 
d="M478 281v115h-454v-115h454zM255 599c-28 0 -51.002 -9.66699 -69.002 -29s-27 -43 -27 -71c0 -26.667 9.33301 -48.667 28 -66s41.334 -26 68.001 -26c12.667 0 24.834 2.33301 36.501 7s22 11.167 31 19.5s16 18 21 29s7.5 23.167 7.5 36.5c0 28 -9 51.667 -27 71
s-41 29 -69 29zM254.998 274c-28 0 -51.002 -9.66699 -69.002 -29s-27 -43 -27 -71c0 -26.667 9.33301 -48.667 28 -66s41.334 -26 68.001 -26c12.667 0 24.834 2.33301 36.501 7s22 11.167 31 19.5s16 18 21 29s7.5 23.167 7.5 36.5c0 28 -9 51.667 -27 71s-41 29 -69 29z
" />
    <glyph glyph-name="oslash" unicode="&#xf8;" horiz-adv-x="748" 
d="M556 637l-50.999 15.999l-38 -82c-30 8 -61 12 -93 12c-43.333 0 -84.833 -7.16699 -124.5 -21.5s-74.667 -34.5 -105 -60.5s-54.5 -57.333 -72.5 -94s-27 -77.334 -27 -122.001c0 -29.333 4.16699 -57 12.5 -83s20 -50.167 35 -72.5s32.667 -42.5 53 -60.5
s42.833 -33.333 67.5 -46l-36 -78l51 -16l34 73c35.333 -11.333 72.666 -16.333 111.999 -15c42.667 -1.33301 83.834 5.33398 123.501 20.001s74.834 35.334 105.501 62.001s55 58.5 73 95.5s27 77.167 27 120.5c0 31.333 -4.66699 60.833 -14 88.5s-22.333 53 -39 76
s-36.334 43.333 -59.001 61s-47.334 32.167 -74.001 43.5zM485.001 284.999c0 -62 -9.83105 -108.833 -29.498 -140.5s-46.834 -47.5 -81.501 -47.5c-22.667 0 -42.334 7 -59.001 21l142 307c8.66699 -14.667 15.5 -33.167 20.5 -55.5s7.5 -50.5 7.5 -84.5zM374.003 472.999
c14.667 0 28.999 -3 42.999 -9l-136 -295c-12 30 -18 68.667 -18 116c0 62 9.83301 108.833 29.5 140.5s46.834 47.5 81.501 47.5z" />
    <glyph glyph-name="ugrave" unicode="&#xf9;" 
d="M466 0l217.001 0.000976562v571h-217v-422c-7.33301 -12.667 -16.5 -22.334 -27.5 -29.001s-21.833 -11.5 -32.5 -14.5s-20.167 -4.66699 -28.5 -5s-13.166 -0.5 -14.499 -0.5c-20 0.666992 -36.5 4.5 -49.5 11.5s-23.167 18 -30.5 33s-12.5 34.833 -15.5 59.5
s-4.5 55.334 -4.5 92.001v203c0 13.333 -3.5 24.666 -10.5 33.999s-15.667 16.833 -26 22.5s-22 9.83398 -35 12.501s-25.5 4 -37.5 4s-24.5 -1.33301 -37.5 -4s-24.667 -6.83398 -35 -12.501s-18.833 -13.167 -25.5 -22.5s-10 -20.666 -10 -33.999v-119v-79
c0 -20.667 0.166992 -36.834 0.5 -48.501s0.666016 -20.667 0.999023 -27s0.666016 -10.833 0.999023 -13.5s0.833008 -5.66699 1.5 -9c6 -32.667 15.667 -62 29 -88s31.5 -48 54.5 -66s51.5 -32.167 85.5 -42.5s74.333 -15.833 121 -16.5c5.33301 0 12.833 0.666992 22.5 2
s20.334 3.83301 32.001 7.5s23.667 8.5 36 14.5s24.166 14 35.499 24v-38zM433.001 608.001l-110 170h-112l150 -170h72z" />
    <glyph glyph-name="uacute" unicode="&#xfa;" 
d="M466 0l217.001 0.000976562v571h-217v-422c-7.33301 -12.667 -16.5 -22.334 -27.5 -29.001s-21.833 -11.5 -32.5 -14.5s-20.167 -4.66699 -28.5 -5s-13.166 -0.5 -14.499 -0.5c-20 0.666992 -36.5 4.5 -49.5 11.5s-23.167 18 -30.5 33s-12.5 34.833 -15.5 59.5
s-4.5 55.334 -4.5 92.001v203c0 13.333 -3.5 24.666 -10.5 33.999s-15.667 16.833 -26 22.5s-22 9.83398 -35 12.501s-25.5 4 -37.5 4s-24.5 -1.33301 -37.5 -4s-24.667 -6.83398 -35 -12.501s-18.833 -13.167 -25.5 -22.5s-10 -20.666 -10 -33.999v-119v-79
c0 -20.667 0.166992 -36.834 0.5 -48.501s0.666016 -20.667 0.999023 -27s0.666016 -10.833 0.999023 -13.5s0.833008 -5.66699 1.5 -9c6 -32.667 15.667 -62 29 -88s31.5 -48 54.5 -66s51.5 -32.167 85.5 -42.5s74.333 -15.833 121 -16.5c5.33301 0 12.833 0.666992 22.5 2
s20.334 3.83301 32.001 7.5s23.667 8.5 36 14.5s24.166 14 35.499 24v-38zM308.001 608.001h72l150 170h-112z" />
    <glyph glyph-name="ucircumflex" unicode="&#xfb;" 
d="M466 0l217.001 0.000976562v571h-217v-422c-7.33301 -12.667 -16.5 -22.334 -27.5 -29.001s-21.833 -11.5 -32.5 -14.5s-20.167 -4.66699 -28.5 -5s-13.166 -0.5 -14.499 -0.5c-20 0.666992 -36.5 4.5 -49.5 11.5s-23.167 18 -30.5 33s-12.5 34.833 -15.5 59.5
s-4.5 55.334 -4.5 92.001v203c0 13.333 -3.5 24.666 -10.5 33.999s-15.667 16.833 -26 22.5s-22 9.83398 -35 12.501s-25.5 4 -37.5 4s-24.5 -1.33301 -37.5 -4s-24.667 -6.83398 -35 -12.501s-18.833 -13.167 -25.5 -22.5s-10 -20.666 -10 -33.999v-119v-79
c0 -20.667 0.166992 -36.834 0.5 -48.501s0.666016 -20.667 0.999023 -27s0.666016 -10.833 0.999023 -13.5s0.833008 -5.66699 1.5 -9c6 -32.667 15.667 -62 29 -88s31.5 -48 54.5 -66s51.5 -32.167 85.5 -42.5s74.333 -15.833 121 -16.5c5.33301 0 12.833 0.666992 22.5 2
s20.334 3.83301 32.001 7.5s23.667 8.5 36 14.5s24.166 14 35.499 24v-38zM201.001 608.001h72l96 111l97 -111h72l-115 170h-112z" />
    <glyph glyph-name="udieresis" unicode="&#xfc;" 
d="M466 0l217.001 0.000976562v571h-217v-422c-7.33301 -12.667 -16.5 -22.334 -27.5 -29.001s-21.833 -11.5 -32.5 -14.5s-20.167 -4.66699 -28.5 -5s-13.166 -0.5 -14.499 -0.5c-20 0.666992 -36.5 4.5 -49.5 11.5s-23.167 18 -30.5 33s-12.5 34.833 -15.5 59.5
s-4.5 55.334 -4.5 92.001v203c0 13.333 -3.5 24.666 -10.5 33.999s-15.667 16.833 -26 22.5s-22 9.83398 -35 12.501s-25.5 4 -37.5 4s-24.5 -1.33301 -37.5 -4s-24.667 -6.83398 -35 -12.501s-18.833 -13.167 -25.5 -22.5s-10 -20.666 -10 -33.999v-119v-79
c0 -20.667 0.166992 -36.834 0.5 -48.501s0.666016 -20.667 0.999023 -27s0.666016 -10.833 0.999023 -13.5s0.833008 -5.66699 1.5 -9c6 -32.667 15.667 -62 29 -88s31.5 -48 54.5 -66s51.5 -32.167 85.5 -42.5s74.333 -15.833 121 -16.5c5.33301 0 12.833 0.666992 22.5 2
s20.334 3.83301 32.001 7.5s23.667 8.5 36 14.5s24.166 14 35.499 24v-38zM429.001 749.001c-15.333 0 -28.166 -5.33301 -38.499 -16s-15.5 -23.667 -15.5 -39c0 -14.667 5.16699 -26.667 15.5 -36s23.166 -14 38.499 -14c14 0 26.167 4.83301 36.5 14.5
s15.5 21.5 15.5 35.5c0 15.333 -5 28.333 -15 39s-22.333 16 -37 16zM281.001 749.001c-14.667 0 -27 -5.33301 -37 -16s-15 -23.667 -15 -39c0 -14.667 5.16699 -26.667 15.5 -36s22.5 -14 36.5 -14c14.667 0 27.167 4.83301 37.5 14.5s15.5 21.5 15.5 35.5
c0 15.333 -5 28.333 -15 39s-22.667 16 -38 16z" />
    <glyph glyph-name="yacute" unicode="&#xfd;" horiz-adv-x="729" 
d="M466 109l-83.0029 -0.00195312c-31.333 0 -56.833 6.66699 -76.5 20s-30.167 38 -31.5 74c-1.33301 44 -1.66602 88.667 -0.999023 134s0.666992 91.333 0 138c0 14 -3.5 26.5 -10.5 37.5s-15.833 20.333 -26.5 28s-22.667 13.334 -36 17.001s-26.333 5.5 -39 5.5
c-13.333 0 -27 -1.83301 -41 -5.5s-26.667 -9 -38 -16s-20.5 -15.833 -27.5 -26.5s-10.5 -23.334 -10.5 -38.001v-324c2.66699 -102 117.334 -153 344.001 -153h76c2.66699 -24 3.33398 -47.667 2.00098 -71s-6.16602 -44.166 -14.499 -62.499s-20.5 -33.166 -36.5 -44.499
s-37 -17 -63 -17h-91v-106h128c105.333 0 180.666 22 225.999 66s68 119 68 225v570h-218v-451zM300.997 605.998h72l150 170h-112z" />
    <glyph glyph-name="thorn" unicode="&#xfe;" horiz-adv-x="719" 
d="M45 681v-903h218v222h76c46.667 0 90.834 4.66699 132.501 14s78.167 24.833 109.5 46.5s56.166 50.167 74.499 85.5s27.5 79.333 27.5 132c0 43.333 -4.66699 81.666 -14 114.999s-24.5 61.5 -45.5 84.5s-48.5 40.5 -82.5 52.5s-75.333 18 -124 18h-154v133
c0.666992 14 -2 27.667 -8 41s-14 25.333 -24 36s-21.667 19 -35 25s-27 8.66699 -41 8c-14 0.666992 -27.833 -2 -41.5 -8s-25.667 -14.167 -36 -24.5s-18.5 -22.166 -24.5 -35.499s-8.66699 -27.333 -8 -42zM463 280l-1.00098 0.000976562
c0.666992 -20.667 -0.333008 -41.167 -3 -61.5s-8.16699 -38.666 -16.5 -54.999s-20.333 -29.5 -36 -39.5s-36.167 -15 -61.5 -15h-82v350h70c26 0 47.5 -5 64.5 -15s30.333 -23.333 40 -40s16.334 -35.834 20.001 -57.501s5.5 -43.834 5.5 -66.501z" />
    <glyph glyph-name="ydieresis" unicode="&#xff;" horiz-adv-x="729" 
d="M466 109l-83.0029 -0.00195312c-31.333 0 -56.833 6.66699 -76.5 20s-30.167 38 -31.5 74c-1.33301 44 -1.66602 88.667 -0.999023 134s0.666992 91.333 0 138c0 14 -3.5 26.5 -10.5 37.5s-15.833 20.333 -26.5 28s-22.667 13.334 -36 17.001s-26.333 5.5 -39 5.5
c-13.333 0 -27 -1.83301 -41 -5.5s-26.667 -9 -38 -16s-20.5 -15.833 -27.5 -26.5s-10.5 -23.334 -10.5 -38.001v-324c0.666992 -26 7.83398 -48.5 21.501 -67.5s34.5 -34.833 62.5 -47.5s63.5 -22.167 106.5 -28.5s94.167 -9.5 153.5 -9.5h76
c2.66699 -24 3.33398 -47.667 2.00098 -71s-6.16602 -44.166 -14.499 -62.499s-20.5 -33.166 -36.5 -44.499s-37 -17 -63 -17h-91v-106h128c105.333 0 180.666 22 225.999 66s68 119 68 225v570h-218v-451zM438.997 744.998c-15.333 0 -28.166 -5.33301 -38.499 -16
s-15.5 -23.667 -15.5 -39c0 -14.667 5.16699 -26.667 15.5 -36s23.166 -14 38.499 -14c14 0 26.167 4.83301 36.5 14.5s15.5 21.5 15.5 35.5c0 15.333 -5 28.333 -15 39s-22.333 16 -37 16zM290.997 744.998c-14.667 0 -27 -5.33301 -37 -16s-15 -23.667 -15 -39
c0 -14.667 5.16699 -26.667 15.5 -36s22.5 -14 36.5 -14c14.667 0 27.167 4.83301 37.5 14.5s15.5 21.5 15.5 35.5c0 15.333 -5 28.333 -15 39s-22.667 16 -38 16z" />
    <glyph glyph-name="dotlessi" unicode="&#x131;" horiz-adv-x="311" 
d="M265 450c0.666992 14.667 -2 28.667 -8 42s-14.333 25 -25 35s-22.667 18 -36 24s-27 9 -41 9c-14.667 0 -28.667 -3 -42 -9s-25 -14 -35 -24s-18 -21.667 -24 -35s-9 -27.333 -9 -42v-448h220v448z" />
    <glyph glyph-name="Lslash" unicode="&#x141;" horiz-adv-x="570" 
d="M265 106l-0.000976562 323.999l69 41l-36 64l-33 -20v165c0 14.667 -2.83301 28.667 -8.5 42s-13.334 25 -23.001 35s-21.167 18 -34.5 24s-27.333 9 -42 9c-14 0.666992 -27.833 -2 -41.5 -8s-25.667 -14.167 -36 -24.5s-18.666 -22.166 -24.999 -35.499
s-9.16602 -27.333 -8.49902 -42v-295l-71 -42l36 -64l35 21v-300h504v106h-285z" />
    <glyph glyph-name="lslash" unicode="&#x142;" horiz-adv-x="310" 
d="M299 519l-36 -22v181c0 14.667 -2.83301 28.667 -8.5 42s-13.5 25 -23.5 35s-21.5 18 -34.5 24s-26.833 9 -41.5 9s-28.667 -3 -42 -9s-25 -14 -35 -24s-18 -21.667 -24 -35s-9 -27.333 -9 -42v-310l-69 -41l36 -64l33 20l1 -283h217v412l72 43z" />
    <glyph glyph-name="OE" unicode="&#x152;" horiz-adv-x="1154" 
d="M45 389c0 -116 39.667 -213.667 119 -293c79.333 -78.667 177.666 -118 294.999 -118c63.333 0 122 11.667 176 35v-12h446c14.667 0 27.5 5.16699 38.5 15.5s16.167 22.833 15.5 37.5s-6.16699 27.167 -16.5 37.5s-22.833 15.5 -37.5 15.5h-227v241h261v105h-262v220
h224c14.667 0 27.167 5.16699 37.5 15.5s15.5 22.833 15.5 37.5s-5.33301 27.167 -16 37.5s-23.334 15.5 -38.001 15.5h-370c-10.667 0 -20.5 -2.33301 -29.5 -7s-17.167 -10.667 -24.5 -18c-57.333 30 -121.666 45 -192.999 45c-117.333 0 -215.666 -39.333 -294.999 -118
c-79.333 -78 -119 -175.333 -119 -292zM283 389c0 78.667 10.668 146.335 32.001 203.002c28.667 76 76.667 114 144 114c29.333 0 55 -8.33301 77 -25s40.5 -38.334 55.5 -65.001s26 -56.834 33 -90.501s10.167 -67.167 9.5 -100.5c-0.666992 -34 -1.66699 -63.333 -3 -88
s-3.33301 -46.334 -6 -65.001s-5.66699 -34.667 -9 -48s-7 -25.666 -11 -36.999c-28.667 -76.667 -77.334 -115 -146.001 -115c-85.333 0 -140 60.667 -164 182c-8 40 -12 85 -12 135z" />
    <glyph glyph-name="oe" unicode="&#x153;" horiz-adv-x="1126" 
d="M703 249l399.001 0.00292969l3 5c4 50.667 -0.666992 96 -14 136s-33.5 73.5 -60.5 100.5s-59.667 47.667 -98 62s-80.5 21.5 -126.5 21.5c-40 0 -78.167 -5.5 -114.5 -16.5s-69.166 -27.167 -98.499 -48.5c-30 23.333 -63.667 41.5 -101 54.5
s-76.666 19.5 -117.999 19.5c-43.333 0 -84.833 -7.16699 -124.5 -21.5s-74.667 -34.5 -105 -60.5s-54.5 -57.333 -72.5 -94s-27 -77.334 -27 -122.001c0 -43.333 9 -83.5 27 -120.5s42.333 -68.833 73 -95.5s65.667 -47.334 105 -62.001s80.666 -21.334 123.999 -20.001
c40 -1.33301 78.167 4 114.5 16s69.5 29.667 99.5 53c28.667 -22 62.5 -38.5 101.5 -49.5s82.167 -16.833 129.5 -17.5c28.667 0 57.667 4.33301 87 13s55.666 20 78.999 34s42.333 29.5 57 46.5s21.667 33.5 21 49.5c-0.666992 18.667 -7.83398 34 -21.501 46
s-29.834 18 -48.501 18c-17.333 0 -30.5 -4 -39.5 -12l-28.5 -26c-10 -9.33301 -22.5 -17.833 -37.5 -25.5s-36.5 -11.167 -64.5 -10.5c-36 1.33301 -64.167 12.333 -84.5 33s-32.166 52 -35.499 94zM374.001 473.003c13.333 0 26.6689 -2.5 40.002 -7.5
s25.166 -14.5 35.499 -28.5s18.833 -33.167 25.5 -57.5s10 -55.833 10 -94.5c0 -62 -9.83301 -108.833 -29.5 -140.5s-46.834 -47.5 -81.501 -47.5s-61.834 15.833 -81.501 47.5s-29.5 78.5 -29.5 140.5s9.83301 108.833 29.5 140.5s46.834 47.5 81.501 47.5z
M936.004 362.003h-226.001c16.667 58.667 52.667 88 108 88c32 0 58.667 -7.66699 80 -23c12.667 -9.33301 21.334 -19 26.001 -29s8.66699 -22 12 -36z" />
    <glyph glyph-name="Scaron" unicode="&#x160;" horiz-adv-x="640" 
d="M283 84c-46 0 -85.667 25.665 -119 76.998c-10.667 18 -24.334 27.333 -41.001 28s-31.667 -3.66602 -45 -12.999s-22.5 -22 -27.5 -38s-1.5 -32 10.5 -48c58 -74.667 142.333 -112 253 -112c40 0 77.167 5.83301 111.5 17.5s64 28.834 89 51.501s44.667 50 59 82
s21.5 68.667 21.5 110c0 39.333 -7.5 72.5 -22.5 99.5s-34.5 50.167 -58.5 69.5s-51.333 36 -82 50l-93 42c-60 26.667 -90 58.334 -90 95.001c0 66 30.333 99 91 99c50 0 93 -27 129 -81c10.667 -15.333 23.334 -23.333 38.001 -24s27.5 3 38.5 11s18.333 19.167 22 33.5
s-0.166016 29.166 -11.499 44.499c-60 80.667 -141 121 -243 121c-40 0 -76.333 -6.33301 -109 -19s-60.834 -30.5 -84.501 -53.5s-42 -50.667 -55 -83s-19.5 -68.5 -19.5 -108.5c0 -94 55.667 -167 167 -219l49 -22.5c19.333 -9 38 -19.333 56 -31s33.5 -24.5 46.5 -38.5
s19.5 -29 19.5 -45c0 -63.333 -33.333 -95 -100 -95zM136 999.998l110 -170h112l115 170h-72l-97 -111l-96 111h-72z" />
    <glyph glyph-name="scaron" unicode="&#x161;" horiz-adv-x="533" 
d="M262 -12c30 -0.666992 59.0029 2.83203 87.0029 10.499s53 19.5 75 35.5s39.667 35.833 53 59.5s20 51.167 20 82.5c0 72 -48 126 -144 162c-12.667 4.66699 -26.5 9.5 -41.5 14.5s-28.833 10.5 -41.5 16.5s-23.334 12.5 -32.001 19.5s-13 15.167 -13 24.5
c0 34 19.333 51.333 58 52c14.667 0 28.334 -3.5 41.001 -10.5s24.667 -15 36 -24l31.5 -24.5c9.66699 -7.33301 18.834 -11 27.501 -11c15.333 0 28.5 4.5 39.5 13.5s16.833 21.167 17.5 36.5c0.666992 16 -6.33301 31.333 -21 46s-32.834 27.334 -54.501 38.001
s-45.167 19.167 -70.5 25.5s-48 9.16602 -68 8.49902c-30 -0.666992 -58.5 -5.16699 -85.5 -13.5s-50.833 -20.333 -71.5 -36s-37.167 -35.167 -49.5 -58.5s-18.5 -50.666 -18.5 -81.999c0 -68.667 46.667 -121.667 140 -159c9.33301 -4 21.166 -8.5 35.499 -13.5
s28.166 -10.667 41.499 -17s24.666 -13.5 33.999 -21.5s14 -16.667 14 -26c0 -32.667 -21.333 -49 -64 -49c-10 0 -21 3.66699 -33 11s-24 15.333 -36 24s-23.667 16.667 -35 24s-21.333 11 -30 11c-11.333 0 -22 -2.83301 -32 -8.5s-17.833 -13 -23.5 -22
s-8.5 -18.833 -8.5 -29.5c0 -10 4.33301 -20 13 -30c48 -52.667 117.667 -79 209 -79zM95.0029 777.999l110 -170h112l115 170h-72l-97 -111l-96 111h-72z" />
    <glyph glyph-name="Ydieresis" unicode="&#x178;" horiz-adv-x="657" 
d="M195 372v-371.998h218v386l226 392h-114l-162 -285l-136 241c-8 16.667 -19.167 30.667 -33.5 42s-29.833 19.166 -46.5 23.499s-33.667 4.66602 -51 0.999023s-33 -12.167 -47 -25.5c-16 -14.667 -25.833 -32.167 -29.5 -52.5s-0.5 -39.5 9.5 -57.5zM417 928.002
c-15.333 0 -28.166 -5.33301 -38.499 -16s-15.5 -23.667 -15.5 -39c0 -14.667 5.16699 -26.667 15.5 -36s23.166 -14 38.499 -14c14 0 26.167 4.83301 36.5 14.5s15.5 21.5 15.5 35.5c0 15.333 -5 28.333 -15 39s-22.333 16 -37 16zM269 928.002
c-14.667 0 -27 -5.33301 -37 -16s-15 -23.667 -15 -39c0 -14.667 5.16699 -26.667 15.5 -36s22.5 -14 36.5 -14c14.667 0 27.167 4.83301 37.5 14.5s15.5 21.5 15.5 35.5c0 15.333 -5 28.333 -15 39s-22.667 16 -38 16z" />
    <glyph glyph-name="Zcaron" unicode="&#x17d;" horiz-adv-x="719" 
d="M330 106l324 572c4.66699 12 7 22 7 30c0 19.333 -6.83301 35.833 -20.5 49.5s-30.167 20.5 -49.5 20.5h-545v-106h359l-385 -672h624c14.667 0 27.167 5.16699 37.5 15.5s15.5 22.833 15.5 37.5s-5.16699 27.167 -15.5 37.5s-22.833 15.5 -37.5 15.5h-314zM174 967
l110 -170h112l115 170h-72l-97 -111l-96 111h-72z" />
    <glyph glyph-name="zcaron" unicode="&#x17e;" horiz-adv-x="586" 
d="M302 107l219.001 381c2 4.66699 3.33301 8.83398 4 12.501s1 6.83398 1 9.50098c0 14 -4.83301 25.833 -14.5 35.5s-21.5 14.5 -35.5 14.5h-437v-108h248l-267 -452h494c5.33301 0 11 1.83301 17 5.5s11.667 8.16699 17 13.5s9.66602 11 12.999 17s5 11.667 5 17
s-0.166992 11.166 -0.5 17.499s-1.83301 12.166 -4.5 17.499s-6.5 9.83301 -11.5 13.5s-12.167 5.5 -21.5 5.5h-226zM123.001 765l110 -170h112l115 170h-72l-97 -111l-96 111h-72z" />
    <glyph glyph-name="circumflex" unicode="&#x2c6;" horiz-adv-x="427" 
d="M45 608h72l96 111l97 -111h72l-115 170h-112z" />
    <glyph glyph-name="caron" unicode="&#x2c7;" horiz-adv-x="427" 
d="M45 778l110 -170h112l115 170h-72l-97 -111l-96 111h-72z" />
    <glyph glyph-name="breve" unicode="&#x2d8;" horiz-adv-x="444" 
d="M45 778c0.666992 -50 17.999 -88.667 51.999 -116c30.667 -24.667 71.667 -37 123 -37c50.667 0 92.5 13 125.5 39s50.833 64 53.5 114h-30c-15.333 -42 -38.666 -63 -69.999 -63h-146c-46 0 -72 21 -78 63h-30z" />
    <glyph glyph-name="dotaccent" unicode="&#x2d9;" horiz-adv-x="212" 
d="M167 679c0 16 -6.16699 30.167 -18.5 42.5s-26.5 18.5 -42.5 18.5s-30.167 -6.16699 -42.5 -18.5s-18.5 -26.5 -18.5 -42.5s6.16699 -30.167 18.5 -42.5s26.5 -18.5 42.5 -18.5s30.167 6.16699 42.5 18.5s18.5 26.5 18.5 42.5z" />
    <glyph glyph-name="ring" unicode="&#x2da;" horiz-adv-x="343" 
d="M45 714c-0.666992 -17.333 2.33301 -33.833 9 -49.5s16 -29.167 28 -40.5s25.833 -20.333 41.5 -27s31.834 -10 48.501 -10c17.333 0 33.666 3.33301 48.999 10s28.666 15.834 39.999 27.501s20.333 25.167 27 40.5s10 31.666 10 48.999s-3.33301 33.666 -10 48.999
s-15.667 28.666 -27 39.999s-24.666 20.333 -39.999 27s-31.666 10 -48.999 10c-16.667 0 -32.834 -3.33301 -48.501 -10s-29.5 -15.667 -41.5 -27s-21.333 -24.666 -28 -39.999s-9.66699 -31.666 -9 -48.999zM104 714c0 18.667 6.66699 34.5 20 47.5s29.333 19.5 48 19.5
s34.5 -6.5 47.5 -19.5s19.5 -28.833 19.5 -47.5s-6.5 -34.667 -19.5 -48s-28.833 -20 -47.5 -20s-34.667 6.66699 -48 20s-20 29.333 -20 48z" />
    <glyph glyph-name="tilde" unicode="&#x2dc;" horiz-adv-x="456" 
d="M81 618c2.66699 6 6.33203 12.166 10.999 18.499s10.334 12 17.001 17s14 8.66699 22 11s16.667 2.5 26 0.5l14 -7l33 -16c12.667 -6 26 -11.667 40 -17s26 -8.33301 36 -9c38 -4.66699 69.333 2.83301 94 22.5s39.667 48.5 45 86.5l-36 4l-14 -21.5
c-4.66699 -7 -10 -12.833 -16 -17.5s-12.833 -8 -20.5 -10s-16.834 -2 -27.501 0c-2.66699 0.666992 -10 3.83398 -22 9.50098l-39.5 18l-40.5 18c-12.667 5.66699 -20.667 8.5 -24 8.5c-67.333 8 -114.666 -29 -141.999 -111z" />
    <glyph glyph-name="endash" unicode="&#x2013;" horiz-adv-x="557" 
d="M557 285v111h-557v-111h557z" />
    <glyph glyph-name="emdash" unicode="&#x2014;" horiz-adv-x="745" 
d="M745 287v109h-745v-109h745z" />
    <glyph glyph-name="quoteleft" unicode="&#x2018;" horiz-adv-x="218" 
d="M198 563l11.999 4l-58 206c-5.33301 19.333 -15.333 35 -30 47c-15.333 12.667 -32.666 17 -51.999 13c-18.667 -4 -32.5 -12.5 -41.5 -25.5s-11.167 -29.167 -6.5 -48.5c4 -18 12 -33 24 -45z" />
    <glyph glyph-name="quoteright" unicode="&#x2019;" horiz-adv-x="216" 
d="M18 563l151.999 151c12 12 20 27 24 45c4.66699 19.333 2.5 35.5 -6.5 48.5s-22.833 21.5 -41.5 25.5c-19.333 4 -36.666 -0.333008 -51.999 -13c-14.667 -12 -24.667 -27.667 -30 -47l-58 -206z" />
    <glyph glyph-name="quotesinglbase" unicode="&#x201a;" horiz-adv-x="216" 
d="M18 -138l151.999 151c12 12 20 27 24 45c4.66699 19.333 2.5 35.5 -6.5 48.5s-22.833 21.5 -41.5 25.5c-19.333 4 -36.666 -0.333008 -51.999 -13c-14.667 -12 -24.667 -27.667 -30 -47l-58 -206z" />
    <glyph glyph-name="quotedblleft" unicode="&#x201c;" horiz-adv-x="391" 
d="M371 563l11.999 4l-58 206c-5.33301 19.333 -15.333 35 -30 47c-15.333 12.667 -32.666 17 -51.999 13c-18.667 -4 -32.5 -12.5 -41.5 -25.5s-11.167 -29.167 -6.5 -48.5c4 -18 12 -33 24 -45zM194.999 556l11 2.99805l-56 206c-6 20 -16.333 35.667 -31 47
c-16 12.667 -33 17 -51 13c-19.333 -3.33301 -33.5 -11.666 -42.5 -24.999s-11.167 -29.666 -6.5 -48.999c4 -19.333 12 -34.333 24 -45z" />
    <glyph glyph-name="quotedblright" unicode="&#x201d;" horiz-adv-x="391" 
d="M18 563l151.999 151c12 12 20 27 24 45c4.66699 19.333 2.5 35.5 -6.5 48.5s-22.833 21.5 -41.5 25.5c-19.333 4 -36.666 -0.333008 -51.999 -13c-14.667 -12 -24.667 -27.667 -30 -47l-58 -206zM193.999 556l152 150.002c12 10.667 20 25.667 24 45
c4.66699 19.333 2.5 35.666 -6.5 48.999s-23.167 21.666 -42.5 24.999c-18 4 -35 -0.333008 -51 -13c-14.667 -11.333 -25 -27 -31 -47l-56 -206z" />
    <glyph glyph-name="quotedblbase" unicode="&#x201e;" horiz-adv-x="391" 
d="M18 -133l151.999 151c12 12 20 27 24 45c4.66699 19.333 2.5 35.5 -6.5 48.5s-22.833 21.5 -41.5 25.5c-19.333 4 -36.666 -0.333008 -51.999 -13c-14.667 -12 -24.667 -27.667 -30 -47l-58 -206zM193.999 -140l152 150.002c12 10.667 20 25.667 24 45
c4.66699 19.333 2.5 35.666 -6.5 48.999s-23.167 21.666 -42.5 24.999c-18 4 -35 -0.333008 -51 -13c-14.667 -11.333 -25 -27 -31 -47l-56 -206z" />
    <glyph glyph-name="dagger" unicode="&#x2020;" horiz-adv-x="572" 
d="M385 110v435.001h158v115h-158v130h-220v-130h-143v-115h143v-435c-0.666992 -14 2 -27.667 8 -41s14.333 -25.333 25 -36s22.667 -19 36 -25s27 -8.66699 41 -8c14 -0.666992 27.833 2 41.5 8s25.667 14.167 36 24.5s18.5 22.166 24.5 35.499s8.66699 27.333 8 42z" />
    <glyph glyph-name="daggerdbl" unicode="&#x2021;" horiz-adv-x="572" 
d="M385 110v228.001h158v115h-158v115h158v115h-158v107h-220v-107h-143v-115h143v-115h-143v-115h143v-228c-0.666992 -14 2 -27.667 8 -41s14.333 -25.333 25 -36s22.667 -19 36 -25s27 -8.66699 41 -8c14 -0.666992 27.833 2 41.5 8s25.667 14.167 36 24.5
s18.5 22.166 24.5 35.499s8.66699 27.333 8 42z" />
    <glyph glyph-name="bullet" unicode="&#x2022;" horiz-adv-x="413" 
d="M209 545c-22 0 -42.3311 -4.16797 -60.998 -12.501s-34.834 -19.666 -48.501 -33.999s-24.334 -31.166 -32.001 -50.499s-11.5 -40 -11.5 -62c0 -21.333 4 -40.833 12 -58.5s18.833 -33 32.5 -46s29.834 -23.167 48.501 -30.5s38.667 -11 60 -11
c20.667 0 40.167 3.83301 58.5 11.5s34.5 18 48.5 31s25 28.333 33 46s12 36.834 12 57.501c0 22 -3.83301 42.667 -11.5 62s-18.334 36.166 -32.001 50.499s-29.667 25.666 -48 33.999s-38.5 12.5 -60.5 12.5z" />
    <glyph glyph-name="ellipsis" unicode="&#x2026;" horiz-adv-x="829" 
d="M141 184c-28 0 -51.002 -9.66699 -69.002 -29s-27 -43 -27 -71c0 -26.667 9.33301 -48.667 28 -66s41.334 -26 68.001 -26c12.667 0 24.834 2.33301 36.501 7s22 11.167 31 19.5s16 18 21 29s7.5 23.167 7.5 36.5c0 28 -9 51.667 -27 71s-41 29 -69 29zM679.998 185
c-28 0 -51.002 -9.66699 -69.002 -29s-27 -43 -27 -71c0 -26.667 9.33301 -48.667 28 -66s41.334 -26 68.001 -26c12.667 0 24.834 2.33301 36.501 7s22 11.167 31 19.5s16 18 21 29s7.5 23.167 7.5 36.5c0 28 -9 51.667 -27 71s-41 29 -69 29zM408.996 184
c-28 0 -51.002 -9.66699 -69.002 -29s-27 -43 -27 -71c0 -26.667 9.33301 -48.667 28 -66s41.334 -26 68.001 -26c12.667 0 24.834 2.33301 36.501 7s22 11.167 31 19.5s16 18 21 29s7.5 23.167 7.5 36.5c0 28 -9 51.667 -27 71s-41 29 -69 29z" />
    <glyph glyph-name="perthousand" unicode="&#x2030;" horiz-adv-x="1572" 
d="M845 424c-30 0.666992 -58.333 -5 -85 -17s-49.834 -28.333 -69.501 -49s-35.167 -44.5 -46.5 -71.5s-17 -55.167 -17 -84.5c0 -30.667 5.66699 -59 17 -85s26.833 -48.5 46.5 -67.5s42.834 -34 69.501 -45s55 -16.5 85 -16.5s58.333 5.5 85 16.5s50.167 26 70.5 45
s36.333 41.5 48 67.5s17.5 54.333 17.5 85c0 29.333 -5.83301 57.666 -17.5 84.999s-27.5 51.333 -47.5 72s-43.5 36.834 -70.5 48.501s-55.5 17.167 -85.5 16.5zM263 811c-30 0.666992 -58.332 -5 -84.999 -17s-49.834 -28.333 -69.501 -49s-35.167 -44.5 -46.5 -71.5
s-17 -55.167 -17 -84.5c0 -30.667 5.66699 -59 17 -85s27 -48.5 47 -67.5s43.167 -33.833 69.5 -44.5s54.5 -16 84.5 -16s58.333 5.33301 85 16s50 25.5 70 44.5s36 41.5 48 67.5s18 54.333 18 85c0 29.333 -5.83301 57.666 -17.5 84.999s-27.5 51.333 -47.5 72
s-43.5 36.834 -70.5 48.501s-55.5 17.167 -85.5 16.5zM317.001 -12l564 823h-88l-564 -823h88zM265.001 742c48 0 72.002 -49.333 72.002 -148c0 -99.333 -24 -149 -72 -149s-72 49.667 -72 149c0 20 0.833008 38.333 2.5 55s5.16699 31.334 10.5 44.001
s12.666 23.167 21.999 31.5s21.666 14.166 36.999 17.499zM847.003 354c48 0 72.002 -49.333 72.002 -148s-24 -148 -72 -148s-72 49.333 -72 148c0 20 0.833008 38.333 2.5 55s5.16699 31.334 10.5 44.001s12.666 23.167 21.999 31.5s21.666 14.166 36.999 17.499z
M1324 422c-30 0.666992 -58.333 -5 -85 -17s-49.834 -28.333 -69.501 -49s-35.167 -44.5 -46.5 -71.5s-17 -55.167 -17 -84.5c0 -30.667 5.66699 -59 17 -85s26.833 -48.5 46.5 -67.5s42.834 -34 69.501 -45s55 -16.5 85 -16.5s58.333 5.5 85 16.5s50.167 26 70.5 45
s36.333 41.5 48 67.5s17.5 54.333 17.5 85c0 29.333 -5.83301 57.666 -17.5 84.999s-27.5 51.333 -47.5 72s-43.5 36.834 -70.5 48.501s-55.5 17.167 -85.5 16.5zM1326 352c48 0 72.002 -49.333 72.002 -148s-24 -148 -72 -148s-72 49.333 -72 148
c0 20 0.833008 38.333 2.5 55s5.16699 31.334 10.5 44.001s12.666 23.167 21.999 31.5s21.666 14.166 36.999 17.499z" />
    <glyph glyph-name="guilsinglleft" unicode="&#x2039;" horiz-adv-x="234" 
d="M202 433l-170 -110v-112l170 -115v72l-111 97l111 96v72z" />
    <glyph glyph-name="guilsinglright" unicode="&#x203a;" horiz-adv-x="234" 
d="M32 433l170 -110v-112l-170 -115v72l111 97l-111 96v72z" />
    <glyph glyph-name="trademark" unicode="&#x2122;" horiz-adv-x="855" 
d="M576 352l22 0.000976562l105 254v-196c0 -18 6.16699 -33.167 18.5 -45.5s27.5 -18.5 45.5 -18.5c17.333 0 32.333 6.16699 45 18.5s19 27.166 19 44.499v375h-126l-87 -212l-90 212h-129l1 -432h73v244zM373 783.001l-323 -0.000976562
c-9.33301 0 -17.333 -3.16699 -24 -9.5s-10 -14.166 -10 -23.499s3.33301 -17.333 10 -24s14.667 -10 24 -10h80v-364h129v364h114v67z" />
    <glyph glyph-name="fi" unicode="&#xfb01;" horiz-adv-x="676" 
d="M643 448c0.666992 14.667 -1.99902 28.666 -7.99902 41.999s-14.333 25 -25 35s-22.667 18 -36 24s-27 9 -41 9c-16.667 0 -32.167 -3.5 -46.5 -10.5s-26.833 -16.5 -37.5 -28.5c-3.33301 2.66699 -7 4.83398 -11 6.50098s-8.66699 2.5 -14 2.5h-115
c2 40.667 8.33301 71.667 19 93c17.333 35.333 49.666 53 96.999 53h77v106h-114c-196.667 -2.66699 -296 -86.667 -298 -252h-70v-115h73v-413h216v413h114v-413h220v448z" />
    <glyph glyph-name="fl" unicode="&#xfb02;" horiz-adv-x="748" 
d="M715 693c0 14.667 -3 28.668 -9 42.001s-14 25 -24 35s-21.5 18 -34.5 24s-26.833 9 -41.5 9c-16 0 -30.333 -3 -43 -9h-175c-196.667 -2.66699 -296 -86.667 -298 -252h-70v-115h73v-427h216v427h115c31.333 0 47 18.333 47 55c0 15.333 -4.16699 29.166 -12.5 41.499
s-19.833 18.5 -34.5 18.5h-115c2 40.667 8.33301 71.667 19 93c16.667 34 49 51.667 97 53h71l1 -687h217z" />
    <glyph glyph-name=".null" horiz-adv-x="0" 
 />
    <glyph glyph-name="nonmarkingreturn" horiz-adv-x="500" 
 />
    <glyph glyph-name="asterisk" horiz-adv-x="323" 
d="M165 644l28.001 102.997c2 6.66699 2.33301 13 1 19s-3.66602 11.333 -6.99902 16s-7.83301 7.83398 -13.5 9.50098s-11.834 1.5 -18.501 -0.5c-10 -3.33301 -16.833 -9.66602 -20.5 -18.999s-3.83398 -18.666 -0.500977 -27.999l25 -101zM184.001 633.997l95 45
c12.667 6 20.5 15.5 23.5 28.5s-1.83301 23.5 -14.5 31.5c-9.33301 5.33301 -18.333 6 -27 2s-15.667 -9.66699 -21 -17l-60 -85zM145.001 640.997l-66 83c-8.66699 10 -19.667 15 -33 15c-12.667 0 -21 -7.33301 -25 -22c-3.33301 -9.33301 -2.5 -17.833 2.5 -25.5
s12.167 -13.167 21.5 -16.5l98 -40zM167.001 615.997l27 -100.998c2 -6.66699 2.5 -13.167 1.5 -19.5s-3.33301 -11.833 -7 -16.5s-8.5 -7.83398 -14.5 -9.50098s-12.333 -1.5 -19 0.5c-10 2.66699 -16.5 8.66699 -19.5 18s-3.16699 18.666 -0.5 27.999l26 101z
M185.001 626.999l95 -46.001c6 -2.66699 11.167 -6.5 15.5 -11.5s7 -10.5 8 -16.5s0.333008 -11.667 -2 -17s-6.5 -10 -12.5 -14c-9.33301 -5.33301 -18.5 -6.16602 -27.5 -2.49902s-15.833 9.5 -20.5 17.5l-60 85zM146.001 619.998l-65.999 -82.999
c-8.66699 -10.667 -19.5 -15.834 -32.5 -15.501s-21.5 7.5 -25.5 21.5c-3.33301 9.33301 -2.33301 18 3 26s12.666 13.667 21.999 17l97 39z" />
    <glyph glyph-name="florin" horiz-adv-x="380" 
d="M380 356v115h-78v109c2 40.667 8.33301 71.667 19 93c17.333 35.333 49.666 53 96.999 53h77v106h-114c-195.333 -2.66699 -294 -86.667 -296 -252v-109h-85v-115h85v-409c-2 -40.667 -8.33301 -71.667 -19 -93c-17.333 -35.333 -49.666 -53 -96.999 -53h-77v-106h114
c195.333 2.66699 294 86.667 296 252v409h78z" />
    <glyph glyph-name="sterling" horiz-adv-x="570" 
d="M265 106l0.000976562 163.001h231v115h-231v47h231v57h-231v107c2 31.333 8 56.666 18 75.999c17.333 35.333 49.666 53 96.999 53h117v106h-154c-195.333 -2.66699 -294 -86.667 -296 -252v-578h503v106h-285z" />
    <glyph glyph-name="germandbls" horiz-adv-x="831" 
d="M577 -2c30 -0.666992 59.001 2.83594 87.001 10.5029s53 19.5 75 35.5s39.667 35.833 53 59.5s20 51.167 20 82.5c0 72 -48 126 -144 162c-12.667 4.66699 -26.5 9.5 -41.5 14.5s-28.833 10.5 -41.5 16.5s-23.334 12.5 -32.001 19.5s-13 15.167 -13 24.5
c0 17.333 5 29 15 35s24.333 11.667 43 17c42 12.667 71.833 32 89.5 58s21.834 62 12.501 108c-3.33301 14.667 -11.833 32.167 -25.5 52.5s-35.167 38.5 -64.5 54.5s-67.666 27.5 -114.999 34.5s-106 4.5 -176 -7.5c-150.667 -20 -227 -102.333 -229 -247h-70v-115h73
v-413h216v528c2 40.667 8.33301 71.667 19 93c8.66699 17.333 21.167 29.666 37.5 36.999s36.166 12.666 59.499 15.999c28 3.33301 53.833 1.16602 77.5 -6.50098s42.167 -17.667 55.5 -30s20 -25.833 20 -40.5c0 -14 -9.33301 -26 -28 -36l-95 -37
c-25.333 -10 -45.666 -20.833 -60.999 -32.5s-26.166 -25.667 -32.499 -42s-9.5 -38.5 -9.5 -66.5c0 -68.667 46.667 -121.667 140 -159c9.33301 -4 21.166 -8.5 35.499 -13.5s28.166 -10.667 41.499 -17s24.666 -13.5 33.999 -21.5s14 -16.667 14 -26
c0 -32.667 -21.333 -49 -64 -49c-10 0 -21 3.66699 -33 11s-24 15.333 -36 24s-23.667 16.667 -35 24s-21.333 11 -30 11c-11.333 0 -22 -2.83301 -32 -8.5s-17.833 -13 -23.5 -22s-8.5 -18.833 -8.5 -29.5c0 -10 4.33301 -20 13 -30c48 -52.667 117.667 -79 209 -79z" />
    </font>
</defs>
</svg>
