<?xml version="1.0" encoding="UTF-8" standalone="no"?>
<!DOCTYPE svg PUBLIC "-//W3C//DTD SVG 1.1//EN" "http://www.w3.org/Graphics/SVG/1.1/DTD/svg11.dtd">
<svg xmlns="http://www.w3.org/2000/svg">
<metadata/>
<defs>
<font id="glyphiconsregular" horiz-adv-x="2400">
<font-face units-per-em="2400" ascent="1920" descent="-480"/>
<missing-glyph horiz-adv-x="500"/>
<glyph horiz-adv-x="0"/>
<glyph horiz-adv-x="800"/>
<glyph unicode=" "/>
<glyph unicode="*" d="M1050 2200h300q21 0 35.5 -14.5t14.5 -35.5v-468l303 303q15 15 36 15t35 -15l212 -212q15 -15 15 -36t-15 -36l-301 -301h465q21 0 35.5 -14.5t14.5 -35.5v-300q0 -21 -14.5 -35.5t-35.5 -14.5h-466l302 -303q15 -14 15 -35.5t-15 -35.5l-212 -212q-15 -15 -36 -15 t-35 15l-303 302v-466q0 -21 -14.5 -35.5t-35.5 -14.5h-300q-21 0 -35.5 14.5t-14.5 35.5v465l-302 -301q-14 -15 -35 -15t-36 15l-212 211q-15 15 -15 36t15 36l303 303h-468q-21 0 -35.5 14.5t-14.5 35.5v300q0 21 14.5 35.5t35.5 14.5h467l-302 302q-15 15 -15 36t15 35 l212 212q14 15 35 15t36 -15l302 -302v467q0 21 14.5 35.5t35.5 14.5z"/>
<glyph unicode="+" d="M2200 954v296q0 20 -15.5 35t-36.5 15h-748v750q0 20 -15.5 35t-36.5 15h-296q-21 0 -36.5 -15t-15.5 -35v-750h-750q-21 0 -35.5 -14.5t-14.5 -35.5v-296q0 -21 15 -37.5t35 -16.5h750v-746q0 -21 16 -37.5t36 -16.5h296q21 0 36.5 16.5t15.5 37.5v746h748q20 0 36 16.5 t16 37.5z"/>
<glyph unicode=" "/>
<glyph unicode="¥" d="M1796 2300h391q15 0 23 -6t8 -17q0 -9 -7 -19l-599 -958h438q29 0 29 -22q0 -9 -7 -20l-144 -216q-12 -18 -34.5 -30t-43.5 -12h-350v-200h550q29 0 29 -22q0 -9 -7 -20l-144 -216q-12 -18 -34.5 -30t-43.5 -12h-350v-450q0 -21 -14.5 -35.5t-35.5 -14.5h-400 q-21 0 -35.5 14.5t-14.5 35.5v450h-550q-29 0 -29 22q0 9 7 20l144 216q12 18 34.5 30t43.5 12h350v200h-550q-29 0 -29 22q0 9 7 20l144 216q12 18 34.5 30t43.5 12h245l-608 958q-6 10 -6 20t8 16t22 6h398q20 0 43 -12t34 -30l440 -664q12 -17 28 -17t27 17l437 664 q12 17 34.5 29.5t43.5 12.5z"/>
<glyph unicode="¶" d="M1126 2283q86 0 166 -17.5t153 -55.5t127 -93.5t86 -137t33 -179.5h-368q2 49 -16.5 85.5t-52.5 56.5t-73.5 29.5t-84.5 9.5q-32 0 -61.5 -6.5t-56.5 -20.5t-43.5 -40t-16.5 -61q0 -25 11 -44.5t34.5 -35t50 -27.5t67 -24t75 -21t85 -22t86.5 -24q63 -19 126.5 -49 t123.5 -72t107 -89.5t75.5 -105.5t28.5 -116q0 -187 -115 -310q-107 73 -278 126q24 25 24 59q0 33 -15.5 62.5t-38.5 53.5t-62 47.5t-74 40t-87 35.5t-88.5 30.5t-90.5 27.5q-49 15 -88 28.5t-86.5 35.5t-83 45t-71 56.5t-58.5 71.5t-37 88t-14 107q0 80 26 147.5t71 116.5 t103.5 86.5t126.5 60t136.5 34t137.5 11.5zM638 1430q48 -34 110 -62.5t98 -40.5t89 -28l3 -1q-57 -55 -57 -123q0 -32 13.5 -57.5t39.5 -43.5t57 -31.5t74.5 -24.5t82.5 -19.5t90 -20.5t89 -23q50 -15 90 -29t90 -36t87.5 -45.5t75.5 -57t62.5 -71.5t39.5 -87.5t15 -105.5 q0 -80 -20.5 -148t-56.5 -118.5t-87 -91t-109 -67t-125 -44.5t-133 -25.5t-134 -7.5q-100 0 -188.5 18.5t-167 59.5t-135 102.5t-89.5 152t-33 202.5h367q6 -126 74.5 -179.5t192.5 -53.5q44 0 82.5 8.5t71.5 26t52.5 48t19.5 70.5q0 28 -11 50.5t-35 40.5t-49 31.5 t-66.5 27t-74 22.5t-84.5 23t-86 24q-49 15 -88 28.5t-86.5 35.5t-83 45t-71 56.5t-58.5 71.5t-37 88t-14 107q0 167 113 303z"/>
<glyph unicode="÷" d="M1050 2000h300q21 0 35.5 -14.5t14.5 -35.5v-300q0 -21 -14.5 -35.5t-35.5 -14.5h-300q-21 0 -35.5 14.5t-14.5 35.5v300q0 21 14.5 35.5t35.5 14.5zM350 1400h1700q21 0 35.5 -14.5t14.5 -35.5v-300q0 -21 -14.5 -35.5t-35.5 -14.5h-1700q-21 0 -35.5 14.5t-14.5 35.5 v300q0 21 14.5 35.5t35.5 14.5zM1050 800h300q21 0 35.5 -14.5t14.5 -35.5v-300q0 -21 -14.5 -35.5t-35.5 -14.5h-300q-21 0 -35.5 14.5t-14.5 35.5v300q0 21 14.5 35.5t35.5 14.5z"/>
<glyph unicode="˚" d="M969 2400h360q-77 -71 -180 -71t-180 71zM495 2000l368 368q27 -32 52 -53l-220 -515zM1795 2000l-200 -200l-219 510q28 23 55 54zM895 1800l129 452q64 -23 125 -23q57 0 117 21l129 -450q-5 -4 -13.5 -10t-36.5 -21t-56 -27t-67.5 -21.5t-76.5 -9.5q-58 0 -120.5 22.5 t-96.5 44.5zM1473 1422l313 313q206 -160 291 -333.5t84 -394.5q-1 -205 -71.5 -384t-199 -312t-321 -210t-424.5 -77t-424.5 77t-321 210t-199.5 312t-72 384q-1 224 80 396.5t285 331.5l313 -313q-135 -80 -223.5 -225.5t-88.5 -333.5q0 -24 1 -36q5 -103 63 -207.5 t146.5 -185t206 -131.5t234.5 -51q116 0 232 51.5t202.5 133t143 185.5t61.5 205q1 12 1 36q0 188 -88.5 333.5t-223.5 225.5zM1157 1359l238 282q-13 -9 -35.5 -22t-86 -35t-120.5 -22t-121.5 20t-100.5 40l-36 19z"/>
<glyph unicode=" " horiz-adv-x="1450"/>
<glyph unicode=" " horiz-adv-x="2900"/>
<glyph unicode=" " horiz-adv-x="1450"/>
<glyph unicode=" " horiz-adv-x="2900"/>
<glyph unicode=" " horiz-adv-x="966"/>
<glyph unicode=" " horiz-adv-x="725"/>
<glyph unicode=" " horiz-adv-x="483"/>
<glyph unicode=" " horiz-adv-x="483"/>
<glyph unicode=" " horiz-adv-x="362"/>
<glyph unicode=" " horiz-adv-x="580"/>
<glyph unicode=" " horiz-adv-x="161"/>
<glyph unicode=" " horiz-adv-x="580"/>
<glyph unicode=" " horiz-adv-x="725"/>
<glyph unicode="€" d="M1429 2289q125 0 240 -34t214 -100.5t176 -160.5t126.5 -220.5t64.5 -273.5h-402q-10 74 -48 144t-93.5 123t-128.5 85t-149 32q-97 0 -168 -18t-130 -61.5t-99 -118.5t-66 -186h674l-80 -300h-642q-1 -3 -1 -19.5t0.5 -42t1.5 -38.5h621l-80 -300h-481q28 -78 68.5 -143 t95 -118.5t128 -83.5t158.5 -30q187 0 293.5 123t130.5 352h402q-16 -187 -82.5 -348.5t-172 -279t-253.5 -184.5t-318 -67q-134 0 -256 39t-220 109t-178 167.5t-136.5 214t-90.5 249.5h-388l80 300h263q0 13 -0.5 38.5t-0.5 42v19.5h-342l80 300h300q80 377 309.5 583 t579.5 206z"/>
<glyph unicode="₽" d="M650 2300h600q99 0 183.5 -15.5t145.5 -40.5t110.5 -63t82 -76.5t56 -87t36 -89t20 -88.5t9 -79t1.5 -66v-45v-26v-30q0 -40 -1.5 -73t-9 -81.5t-20 -88t-36 -86.5t-56 -83t-82 -71.5t-110.5 -59t-145 -37.5t-184 -14h-202q-21 0 -35.5 -14.5t-14.5 -35.5v-150h752 q29 0 29 -22q0 -9 -7 -20l-144 -216q-12 -18 -34.5 -30t-43.5 -12h-552v-450q0 -21 -15 -35.5t-35 -14.5h-298q-21 0 -35.5 14.5t-14.5 35.5v450h-450q-29 0 -29 22q0 9 7 20l144 216q12 18 34.5 30t43.5 12h250v200h-450q-29 0 -29 22q0 9 7 20l144 216q12 18 34.5 30 t43.5 12h250v950q0 21 14.5 35.5t35.5 14.5zM1000 1900v-500h300q47 0 77 3t56.5 12.5t41 25.5t25.5 45t15 68t4 96t-4 96t-15 68t-25.5 45t-41.5 25.5t-56.5 12.5t-76.5 3h-300z"/>
<glyph unicode="−" d="M2100 950v300q0 21 -14.5 35.5t-35.5 14.5h-1700q-21 0 -35.5 -14.5t-14.5 -35.5v-300q0 -21 14.5 -35.5t35.5 -14.5h1700q21 0 35.5 14.5t14.5 35.5z"/>
<glyph unicode="⌚" d="M1600 2100l33 -100h-766l33 100v300h700v-300zM850 1900h800q103 0 176.5 -73.5t73.5 -176.5v-50h50q21 0 35.5 -14.5t14.5 -35.5v-200q0 -21 -14.5 -35.5t-35.5 -14.5h-50v-450q0 -103 -73.5 -176.5t-176.5 -73.5h-800q-103 0 -176.5 73.5t-73.5 176.5v800 q0 103 73.5 176.5t176.5 73.5zM1250 1712q-94 0 -179.5 -36.5t-147.5 -98.5t-98.5 -147.5t-36.5 -179.5t36.5 -179.5t98.5 -147.5t147.5 -98.5t179.5 -36.5t179.5 36.5t147.5 98.5t98.5 147.5t36.5 179.5t-36.5 179.5t-98.5 147.5t-147.5 98.5t-179.5 36.5zM1225 1600h50 q10 0 17.5 -7.5t7.5 -17.5v-275h175q10 0 17.5 -7.5t7.5 -17.5v-50q0 -10 -7.5 -17.5t-17.5 -7.5h-250q-10 0 -17.5 7.5t-7.5 17.5v350q0 10 7.5 17.5t17.5 7.5zM1600 400v-300h-700v300l-33 100h766z"/>
<glyph unicode="⌛" d="M2000 2400v-200q0 -41 -29.5 -70.5t-70.5 -29.5h-100v-300q0 -182 -99.5 -331t-261.5 -219q162 -70 261.5 -219t99.5 -331v-400h100q41 0 70.5 -29.5t29.5 -70.5v-200h-1600v200q0 41 29.5 70.5t70.5 29.5h100v400q0 182 99.5 331t261.5 219q-162 70 -261.5 219 t-99.5 331v100v200h-100q-41 0 -70.5 29.5t-29.5 70.5v200h1600zM800 2100v-300q0 -119 65.5 -219t174.5 -148q55 -24 88 -73.5t33 -109.5t-33 -109.5t-88 -73.5q-109 -48 -174.5 -148t-65.5 -219v-400h800v400q0 119 -65.5 219t-174.5 148q-55 24 -88 73.5t-33 109.5 t33 109.5t88 73.5q109 48 174.5 148t65.5 219v300h-800zM900 1800h600q0 -89 -49 -164t-131 -111q-73 -32 -120 -95q-47 63 -120 95q-82 36 -131 111t-49 164zM1200 770q47 -63 120 -95q82 -36 131 -111t49 -164h-600q0 89 49 164t131 111q73 32 120 95z"/>
<glyph unicode="◼" horiz-adv-x="500" d="M0 0z"/>
<glyph unicode="☁" d="M1900 1581q118 0 226 -47.5t185.5 -127t123.5 -188.5t46 -227.5t-46 -227.5t-123.5 -188.5t-185.5 -127t-226 -47.5h-1500q-104 0 -193 53.5t-140 144t-51 194.5q0 138 86 246.5t216 136.5q-4 39 -4 75q0 150 58.5 286t157 234.5t234.5 157t286 58.5q221 0 401.5 -119.5 t268.5 -314.5q88 29 180 29z"/>
<glyph unicode="☂" d="M1200 2599q41 0 70.5 -29.5t29.5 -70.5v-105q165 -12 321.5 -69t288 -148t242 -216.5t187 -271.5t119 -315.5t42.5 -345.5h-4q-137 269 -442 269q-130 0 -240.5 -51.5t-186.5 -148.5q-79 101 -190.5 161t-236.5 60q-123 0 -234.5 -63.5t-192.5 -167.5q-77 100 -188.5 156 t-237.5 56q-305 0 -442 -271h-5q0 176 42.5 345.5t119 315.5t187 271.5t242 216.5t288 148t321.5 69v105q0 41 29.5 70.5t70.5 29.5zM1200 1099q23 0 47.5 -4t38.5 -9t14 -7v-880q0 -60 -15 -116.5t-48 -108t-80 -90t-115.5 -61.5t-150.5 -23q-179 0 -285 107.5t-106 291.5 v49q0 21 14.5 35.5t35.5 15.5h100q21 -1 35.5 -15.5t14.5 -35.5v-49q0 -38 9.5 -71t31 -63t62.5 -47.5t97 -17.5q41 0 73.5 9.5t53 23.5t35.5 35t22 38t11 39t4.5 32t0.5 22v880q0 2 14 7t38.5 9t47.5 4z"/>
<glyph unicode="☉" d="M1300 2400v-401q0 6 -100 6t-100 -6v401h200zM425 2122l285 -284q-84 -65 -148 -148l-284 285zM2122 1975l-284 -285q-64 83 -148 148l285 284zM1200 1688q98 0 188.5 -39t156 -104.5t104.5 -156t39 -188.5t-39 -188.5t-104.5 -156t-156 -104.5t-188.5 -39t-188.5 39 t-156 104.5t-104.5 156t-39 188.5t39 188.5t104.5 156t156 104.5t188.5 39zM0 1300h401q-6 0 -6 -100t6 -100h-401v200zM2400 1100h-401q7 0 7 100t-7 100h401v-200zM278 425l284 285q65 -84 148 -148l-285 -284zM2122 425l-147 -147l-285 284q84 65 148 148zM1300 0h-200 v401q0 -6 100 -6t100 6v-401z"/>
<glyph unicode="⚓" d="M1196.5 2400q108.5 0 201 -53.5t146.5 -146t54 -200.5q0 -104 -57.5 -196.5t-140.5 -149.5v-1330q143 29 251.5 94.5t204.5 169.5l-170 168q-15 15 -10.5 27.5t24.5 15.5l643 91q21 3 33.5 -9.5t9.5 -32.5l-92 -643q-3 -21 -15.5 -25t-26.5 10l-188 188 q-168 -178 -393 -278t-476 -100q-252 0 -478 99.5t-393 276.5l-185 -185q-15 -15 -27.5 -10.5t-15.5 24.5l-92 644q-3 20 10 32.5t33 9.5l644 -92q20 -3 24.5 -15.5t-9.5 -26.5l-167 -168q95 -104 206 -169.5t255 -95.5v1330q-84 58 -143 150.5t-59 195.5q0 109 53.5 201 t145 145.5t200 53.5zM1195.5 2211q-87.5 0 -149.5 -62t-62 -149t62 -149t149.5 -62t149 62t61.5 149t-61.5 149t-149 62z"/>
<glyph unicode="⚘" d="M1155 1865q-85 85 -227 122q5 55 26 111t49.5 102t62 89t66 75t59 56t43.5 36l16 12q6 -4 17 -12.5t42 -35.5t60 -56.5t65 -74t63 -89.5t48.5 -101.5t26.5 -111.5q-142 -37 -227 -122q-58 -58 -95 -148q-37 90 -95 148zM1691 881l1 1q26 33 57 57.5t60.5 39.5t75 29 t85 23t106.5 26t124 33q0 -131 -20.5 -234t-53.5 -166.5t-78.5 -106.5t-90.5 -61.5t-96 -23.5t-88.5 -0.5t-73.5 15.5l-299 -299v-214h-300v214l-299 299q-36 -11 -73.5 -15.5t-88 0.5t-96 23.5t-91 61.5t-78.5 106.5t-53.5 166.5t-20.5 234q72 -21 147 -40t113.5 -28 t80 -21.5t66 -26.5t50 -36.5t51.5 -56.5q52 -66 65.5 -138.5t-4.5 -156.5l231 -231v766q-122 15 -234.5 69.5t-201 146.5t-127.5 207q-70 204 -33 450q103 6 217 6q-6 54 -4.5 112t5.5 103l5 45q65 12 157 12q-26 -33 -47 -84.5t-32 -101.5t-19 -96t-10 -74l-3 -28l100 -26 q197 -51 266 -220l111 -272l111 272q69 169 266 220l100 26q-1 11 -3 29.5t-10 71t-19 99t-32 99t-47 85.5q41 0 80.5 -3t57.5 -6l19 -3q1 -6 2 -17.5t3.5 -44.5t4 -63.5t1 -68.5t-4.5 -66q114 0 217 -6q37 -246 -33 -450q-39 -115 -127.5 -207t-201 -146.5t-234.5 -69.5 v-766l231 231q-5 28 -7.5 45.5t-2.5 52.5t6 62.5t22 64t42 70.5z"/>
<glyph unicode="⚾" d="M2190 2352l213 -212q52 -52 52 -127t-52 -127l-607 -607q-54 -54 -201.5 -156.5t-247.5 -152.5q-94 -47 -144 -73t-115 -67.5t-99 -75.5l-587 -586l50 -49q14 -15 14 -35.5t-14 -35.5l-51 -50q-14 -15 -35 -15t-35 15l-283 282q-15 15 -15 36t15 35l50 51q15 14 36 14 t35 -14l50 -50l586 586q34 34 75 99.5t67 115.5t73 144q50 99 152.5 247t156.5 201l607 607q52 53 127 53t127 -53zM2100 712q129 0 221 -91.5t92 -221t-92 -221t-221 -91.5t-220.5 91.5t-91.5 221t91.5 221t220.5 91.5z"/>
<glyph unicode="⛺" d="M1449 2287q32 -20 40.5 -55t-11.5 -67l-171 -273l934 -1492h59q40 0 70 -37t30 -80v-83h-2400v83q0 43 30 80t70 37h59l936 1492l-168 266q-20 32 -11.5 68.5t40.5 56t68 10.5t56 -40l121 -197l124 201q20 32 56 40.5t68 -10.5zM1200 400h754l-413 180l-341 1113v-1293z "/>
<glyph unicode="✈" d="M1203 2400q71 0 129 -25.5t94 -67.5t55 -93.5t19 -107.5v-698l862 -720q16 -13 27 -37t11 -45v-170q0 -20 -13 -28t-31 1l-956 497v-600l261 -211q16 -12 27.5 -36t11.5 -45v-75q0 -21 -14 -31.5t-34 -4.5l-352 103q-20 6 -100 6t-100 -6l-352 -103q-20 -6 -34 4.5 t-14 31.5v75q0 21 11.5 45t27.5 36l261 211v600l-956 -498q-18 -9 -31 -1t-13 28v171q0 21 11 45t27 37l862 720v698q0 55 20 107t57.5 94t96 67.5t129.5 25.5z"/>
<glyph unicode="✉" d="M1200 800l-1200 1200h2400zM600 1200l-600 -600v1200zM2400 600l-600 600l600 600v-1200zM2400 400h-2400l700 700l500 -500l500 500z"/>
<glyph unicode="✏" d="M2075 2381l306 -306q21 -21 21 -51t-21 -51l-204 -204l-408 408l204 204q21 21 51 21t51 -21zM2054 1645l-1284 -1284l-408 408l1284 1284zM646 238l-615 -236q-20 -8 -28.5 0.5t-0.5 28.5l236 615z"/>
<glyph unicode="❄" d="M1300 2341l94 95q22 22 48.5 27.5t49.5 -3t41.5 -27t27 -41.5t3 -49.5t-27.5 -48.5l-236 -235v-300l212 -106l188 188v359q0 37 20.5 62t50 31t59 0t50 -31t20.5 -62v-159l149 149q18 19 40.5 26t43 2t39 -16.5t30 -30.5t16.5 -39t-2 -42.5t-26 -41.5l-149 -148h159 q37 0 62 -20.5t31 -50t0 -59t-31 -50t-62 -20.5h-359l-188 -188l106 -212h300l235 236q19 19 41.5 25.5t42.5 2t39 -16t30.5 -30.5t16 -39t-2 -42.5t-25.5 -41.5l-95 -94h159q37 0 62 -20.5t31 -50t0 -59t-31 -50t-62 -20.5h-159l95 -94q22 -22 27.5 -48.5t-3 -49.5 t-27 -41.5t-41.5 -27t-49.5 -3t-48.5 27.5l-235 236h-300l-106 -211l188 -189h359q37 0 62 -20.5t31 -50t0 -59t-31 -50t-62 -20.5h-159l149 -149q22 -21 27.5 -47.5t-3 -49.5t-27 -41.5t-41.5 -27t-49.5 -3t-47.5 27.5l-149 149v-159q0 -37 -20.5 -62t-50 -31t-59 0t-50 31 t-20.5 62v359l-189 188l-211 -106v-300l236 -235q22 -22 27.5 -48.5t-3 -49.5t-27 -41.5t-41.5 -27t-49.5 -3t-48.5 27.5l-94 95v-159q0 -37 -20.5 -62t-50 -31t-59 0t-50 31t-20.5 62v159l-94 -95q-22 -22 -48.5 -27.5t-49.5 3t-41.5 27t-27 41.5t-3 49.5t27.5 48.5 l236 235v300l-212 106l-188 -188v-359q0 -37 -20.5 -62t-50 -31t-59 0t-50 31t-20.5 62v159l-148 -149q-19 -19 -41.5 -26t-42.5 -2t-39 16.5t-30.5 30.5t-16 39t2 42.5t25.5 40.5l149 149h-159q-37 0 -62 20.5t-31 50t0 59t31 50t62 20.5h359l188 188l-106 212h-300 l-235 -236q-19 -19 -41.5 -25.5t-42.5 -2t-39 16t-30.5 30.5t-16.5 39t2 42.5t26 41.5l95 94h-159q-37 0 -62 20.5t-31 50t0 59t31 50t62 20.5h159l-95 94q-22 22 -27.5 48.5t3 49.5t27 41.5t41.5 27t49.5 3t48.5 -27.5l235 -236h300l106 212l-188 188h-359q-37 0 -62 20.5 t-31 50t0 59t31 50t62 20.5h159l-149 148q-19 19 -25.5 41.5t-2 42.5t16 39t30.5 30.5t39 16.5t42.5 -2t41.5 -26l148 -149v159q0 37 20.5 62t50 31t59 0t50 -31t20.5 -62v-359l189 -188l211 106v300l-236 235q-22 22 -27.5 48.5t3 49.5t27 41.5t41.5 27t49.5 3t48.5 -27.5 l94 -95v159q0 46 31 72t69 26t69 -26t31 -72v-159zM943 1457l-128 -257l128 -257l257 -128l257 128l128 257l-128 257l-257 128z"/>
<glyph unicode="" d="M1292 1112v-827l700 -233v-50h-1600v50l700 233v834l-1034 1281h2284zM388 2200l704 -899l-404 899h-300z"/>
<glyph unicode="" d="M2399 2422q-163 -47 -342 -93t-302.5 -75t-258.5 -64t-231 -65t-197.5 -73t-180.5 -94t-157.5 -122t-149.5 -162q-252 -324 -252 -718q0 -85 10.5 -172.5t25.5 -168.5t18 -112l-381 -383v-142l437 440q30 0 119.5 -14.5t216 -29t244.5 -14.5q105 0 202 11.5t208 43.5 t209 83t198 135.5t181.5 194.5t154 267t122 347t78 440t28.5 540zM2188 2118q4 0 4 -8q0 -13 -10 -43.5t-20 -54.5l-10 -25q-153 -316 -409 -518q-133 -105 -378 -238q-19 -10 -58 -31q-210 -113 -414.5 -252.5t-282.5 -244.5q-14 -19 -36 -42.5t-32 -23.5q-6 0 -6 10 q0 25 28 89q43 102 121.5 202.5t165 178.5t201 158t206.5 134t204 114q228 121 318 181q202 135 323 311q70 103 85 103z"/>
<glyph unicode="" d="M1484 1928l524 524q37 40 65 40q27 0 27 -41v-151q1 -18 1.5 -27.5t5.5 -23t14 -22.5l465 -458q12 -12 12 -25q0 -20 -21 -36l-316 -210q-16 -11 -37 -11q-24 0 -42 14l-68 56q-13 13 -34 13q-23 0 -39 -16l-107 -107q-15 -15 -36 -15q-20 0 -35 15l-379 410 q-15 15 -15 36q0 20 15 35zM14 1896q12 12 27 12q13 0 41 -13q163 -120 224 -158q27 -17 61 -26.5t54 -9.5l20 -1h740q26 0 48 5t35.5 12.5t23 14.5t13.5 12l4 5q14 14 35 14q22 0 35 -14l384 -411q16 -15 28.5 -40.5t12.5 -44.5v-1153q0 -41 -29.5 -70.5t-70.5 -29.5h-100 q-41 0 -70.5 29.5t-29.5 70.5v664q0 22 -11 38t-31 18l-858 180q-21 2 -47.5 -6t-42.5 -22l-210 -369v-503q0 -41 -29.5 -70.5t-70.5 -29.5h-100q-41 0 -70.5 29.5t-29.5 70.5v1044q0 21 9 47.5t21 43.5l191 265q10 14 10 33q0 25 -18 42l-194 248q-19 17 -19 40q0 19 14 33 z"/>
<glyph unicode="" d="M1250 2300q109 0 196 -35.5t142 -97t83.5 -142.5t28.5 -175v-299q0 -149 -100 -222v-378q51 -20 123 -55.5t139 -71t146 -79t129 -72.5t104.5 -60.5t58.5 -33.5q59 -34 79.5 -74t20.5 -120v-235q0 -21 -14.5 -35.5t-35.5 -14.5h-2200q-21 0 -35.5 14.5t-14.5 35.5v235 q0 80 20.5 120t79.5 74q516 293 700 372v377q-100 73 -100 223v299q0 94 28.5 175t83.5 142.5t142 97t196 35.5z"/>
<glyph unicode="" d="M1200 2300q97 0 186 -41.5t153.5 -111t107 -160t53.5 -187.5v-400l137 -258l348 -116l-230 -231l-206 313l-249 -92v-202q88 -45 206 -121t218.5 -146t121.5 -82q49 -30 83 -68t47 -71.5t19.5 -62.5t5.5 -46l-1 -17v-50q0 -21 -15 -35.5t-35 -14.5h-1900 q-21 0 -35.5 14.5t-14.5 35.5v50h1q-1 6 -1.5 17.5t5 45t19 64t47.5 69.5t83 69q21 13 121.5 82.5t218 145.5t206.5 121v202l-249 92l-206 -313l-230 231l347 116l138 258v400q0 97 36 187.5t100.5 160t159 111t204.5 41.5z"/>
<glyph unicode="" d="M536 2300h1328q66 0 107 -15.5t68 -46t57 -91.5l164 -547h190q21 0 35.5 -14.5t14.5 -35.5v-100q0 -21 -14.5 -35.5t-35.5 -14.5h-92l42 -100v-1150q0 -21 -14.5 -35.5t-35.5 -14.5h-200q-21 0 -35.5 14.5t-14.5 35.5v150h-1800v-150q0 -21 -14.5 -35.5t-35.5 -14.5h-200 q-21 0 -35.5 14.5t-14.5 35.5v1150l42 100h-92q-21 0 -35.5 14.5t-14.5 35.5v100q0 21 14.5 35.5t35.5 14.5h190l164 547q30 61 57 91.5t68 46t107 15.5zM1877 2100h-1354q-37 0 -60 -40q-8 -17 -37.5 -132t-55.5 -221l-26 -107h1712q-102 423 -119 460q-23 40 -60 40z M100 1000l100 -100h300v200l-400 110v-210zM1900 1100v-200h300l100 100v210zM800 700v-200h800v200h-800z"/>
<glyph unicode="" d="M2300 2500q136 0 251 -67t182 -182t67 -251t-67 -251t-182 -182t-251 -67q-140 0 -252 57t-180 172t-68 271q0 146 67.5 261t181 177t251.5 62zM1150 2300q145 0 249 -62t152.5 -162t48.5 -226v-298q0 -149 -100 -223v-377q186 -76 700 -373q59 -33 79.5 -73.5 t20.5 -120.5v-235q0 -21 -15 -35.5t-35 -14.5h-2200q-20 0 -35 14.5t-15 35.5v235q0 80 20.5 120.5t79.5 73.5q481 278 700 373v376q-100 74 -100 224v298q0 126 48.5 226t152.5 162t249 62zM2350 2300h-100q-20 0 -35 -14.5t-15 -35.5v-150h-150q-20 0 -35 -14.5t-15 -35.5 v-100q0 -21 15 -35.5t35 -14.5h150v-150q0 -21 15 -35.5t35 -14.5h100q20 0 35 14.5t15 35.5v150h150q20 0 35 14.5t15 35.5v100q0 21 -15 35.5t-35 14.5h-150v150q0 21 -15 35.5t-35 14.5z"/>
<glyph unicode="" d="M2300 2500q136 0 251 -67t182 -182t67 -251t-67 -251t-182 -182t-251 -67q-140 0 -252 57t-180 172t-68 271q0 146 67.5 261t181 177t251.5 62zM1150 2300q145 0 249 -62t152.5 -162t48.5 -226v-298q0 -149 -100 -223v-377q186 -76 700 -373q59 -33 79.5 -73.5 t20.5 -120.5v-235q0 -21 -14.5 -35.5t-35.5 -14.5h-2200q-21 0 -35.5 14.5t-14.5 35.5v235q0 80 20.5 120.5t79.5 73.5q481 278 700 373v376q-100 74 -100 224v298q0 126 48.5 226t152.5 162t249 62zM2550 2100h-500q-20 0 -35 -14.5t-15 -35.5v-100q0 -21 15 -35.5 t35 -14.5h500q20 0 35 14.5t15 35.5v100q0 21 -15 35.5t-35 14.5z"/>
<glyph unicode="" d="M200 2500h2000q41 0 70.5 -29.5t29.5 -70.5v-2400q0 -41 -29.5 -70.5t-70.5 -29.5h-2000q-41 0 -70.5 29.5t-29.5 70.5v2400q0 41 29.5 70.5t70.5 29.5zM200 2300v-200h300v200h-300zM600 2300v-1000h1200v1000h-1200zM1900 2300v-200h300v200h-300zM200 1900v-200h300 v200h-300zM1900 1900v-200h300v200h-300zM200 1500v-200h300v200h-300zM1900 1500v-200h300v200h-300zM200 1100v-200h300v200h-300zM600 1100v-1000h1200v1000h-1200zM1900 1100v-200h300v200h-300zM200 700v-200h300v200h-300zM1900 700v-200h300v200h-300zM200 300v-200 h300v200h-300zM1900 300v-200h300v200h-300z"/>
<glyph unicode="" d="M497 1894l-494 -157l494 -143l154 -499l146 499l493 148l-493 152l-150 500zM2233 2366l142 -141q14 -15 14 -35.5t-14 -35.5l-403 -402l-212 212l403 402q14 15 35 15t35 -15zM1813 1592l-1572 -1571q-14 -15 -35 -15t-35 15l-142 141q-14 15 -14 35.5t14 35.5 l1572 1572zM1974 1227l-266 -78l266 -79l79 -266l78 266l266 79l-266 78l-78 267zM1452 640l-344 -101l344 -101l101 -344l101 344l343 101l-343 101l-101 344z"/>
<glyph unicode="" d="M927 2200h546q94 0 185 -62t126 -149l32 -78q1 -2 1.5 -5.5t1.5 -5.5h341q92 0 170.5 -45.5t124 -124t45.5 -170.5v-1020q0 -92 -45.5 -170.5t-124 -124t-170.5 -45.5h-1920q-92 0 -170.5 45.5t-124 124t-45.5 170.5v1020q0 92 45.5 170.5t124 124t170.5 45.5h341 q1 2 1.5 5.5t1.5 5.5l32 78q35 87 126 149t185 62zM2000 1600v-100h200v100h-200zM1200 1525q-107 0 -204 -41.5t-167.5 -112t-112 -167.5t-41.5 -204t41.5 -204t112 -167.5t167.5 -112t204 -41.5t204 41.5t167.5 112t112 167.5t41.5 204t-41.5 204t-112 167.5t-167.5 112 t-204 41.5zM1200 1275q114 0 194.5 -80.5t80.5 -194.5t-80.5 -194.5t-194.5 -80.5t-194.5 80.5t-80.5 194.5t80.5 194.5t194.5 80.5z"/>
<glyph unicode="" d="M1178 1969q77 111 172 182.5t191 99t195.5 23t189 -40.5t169 -97.5t137 -140.5t91 -177.5t33.5 -201.5q0 -89 -38 -181.5t-108.5 -185t-159 -186t-200 -202t-219.5 -216t-231 -246.5t-222 -274q-99 135 -222 274t-231 246.5t-219.5 216t-200 202t-159 186t-108.5 185 t-38 181.5q0 103 34.5 201.5t93.5 177.5t140 140.5t171.5 97.5t191 40.5t195.5 -23t187.5 -99t164.5 -182.5z"/>
<glyph unicode="" d="M1838 2386q36 -21 47 -62t-10 -78l-54 -93q129 -89 230 -206.5t167.5 -250t100 -280.5t31 -296.5t-44 -300t-120.5 -288.5q-28 -49 -63 -98q7 134 -56 254.5t-183 190.5q-95 55 -204.5 62t-205.5 -31q-8 125 -73.5 234.5t-178.5 174.5q-112 64 -240.5 67.5t-236.5 -51.5 q-18 104 -77.5 192t-153.5 143q-127 70 -263.5 63t-249.5 -85q25 57 57 112q80 138 190 249.5t237.5 188t272.5 121t293 53.5t300.5 -20t293.5 -95l54 93q21 36 62 47t78 -10zM1122 2188q-190 0 -367 -66.5t-320 -190.5l-26 -22l33 -11q88 -28 142 -51.5t103.5 -60.5 t86.5 -86t77 -126l16 -30l18 29q61 97 130.5 176t129.5 128.5t123 86t107.5 54t86.5 27.5t57.5 11.5t22.5 1.5l8 38q-204 92 -428 92zM1730 1991l-28 -25q3 -6 9.5 -20t18.5 -55.5t19.5 -89t7 -120.5t-13 -149.5t-46.5 -176t-87 -200.5l-16 -31l34 2q23 1 48 1 q95 0 165.5 -20t129.5 -59t141 -114l26 -24l7 34q30 149 14 299t-68.5 285.5t-145 255t-215.5 207.5zM353 19l669 1158q53 -11 98 -37q42 -25 79 -64l-610 -1057h-236z"/>
<glyph unicode="" d="M600 2400h1200q83 0 150.5 -57.5t79.5 -139.5q19 -90 47 -229t75.5 -412t47.5 -362v-300q0 -64 -12.5 -129t-42.5 -133t-74 -120t-114.5 -85t-156.5 -33h-1200q-110 0 -188.5 35t-124.5 103t-66.5 156.5t-20.5 205.5v300q0 89 42.5 339.5t85.5 456.5l42 207 q12 82 79.5 139.5t150.5 57.5zM1817 2200h-1229q-9 0 -20.5 -10t-12.5 -18l-155 -872q16 -9 45.5 -25t120 -55.5t181 -70t216 -55.5t237.5 -25t235.5 24t220 57.5t177 67.5t123.5 58l44 24l-150 872q-2 8 -13 18t-20 10zM400 800l400 -100v200l-400 200v-300zM1600 900v-200 l400 100v300zM600 -200h-400l446 500h220zM2200 -200h-400l-273 500h220z"/>
<glyph unicode="" d="M750 2400h900q21 0 37 -14.5t18 -35.5l190 -894q2 -21 -11 -35.5t-34 -14.5h-1300q-21 0 -34 14.5t-11 35.5l190 894q2 21 18 35.5t37 14.5zM2050 1700h300q21 0 35.5 -14.5t14.5 -35.5v-1397q0 -21 -15 -37t-35 -16h-370q-21 0 -39 15t-23 35l-39 202q-5 20 -23 34 t-39 14h-1234q-21 0 -39 -14.5t-23 -34.5l-39 -201q-5 -20 -23 -35t-39 -15h-370q-20 0 -35 16t-15 37v1397q0 21 14.5 35.5t35.5 14.5h297q21 0 37 -15t16 -35v-300q0 -21 13 -35.5t34 -14.5h1503q21 0 35.5 14.5t14.5 35.5v300q0 21 14.5 35.5t35.5 14.5zM200 1598 q-41 0 -70.5 -29.5t-29.5 -70.5q0 -42 29.5 -71t70.5 -29t70.5 29t29.5 71q0 41 -29.5 70.5t-70.5 29.5zM700 400h1000q21 0 39 -14t23 -34l76 -304q5 -20 -6 -34t-32 -14h-1200q-21 0 -32 14t-6 34l76 304q5 20 23 34t39 14z"/>
<glyph unicode="" d="M1000 2600h400q82 0 141 -59t59 -141v-200h550q21 0 35.5 -14.5t14.5 -35.5v-100q0 -21 -14.5 -35.5t-35.5 -14.5h-1900q-21 0 -35.5 14.5t-14.5 35.5v100q0 21 14.5 35.5t35.5 14.5h550v200q0 82 59 141t141 59zM1000 2400v-200h400v200h-400zM350 1900h1680 q70 0 70 -41v-2009q0 -23 -20 -36.5t-50 -13.5h-1680q-17 0 -29.5 8t-16.5 16l-4 9v2017q0 26 11 38t39 12zM750 1600h-100q-21 0 -35.5 -14.5t-14.5 -35.5v-1400q0 -21 14.5 -35.5t35.5 -14.5h100q21 0 35.5 14.5t14.5 35.5v1400q0 21 -14.5 35.5t-35.5 14.5zM1250 1600 h-100q-21 0 -35.5 -14.5t-14.5 -35.5v-1400q0 -21 14.5 -35.5t35.5 -14.5h100q21 0 35.5 14.5t14.5 35.5v1400q0 21 -14.5 35.5t-35.5 14.5zM1750 1600h-100q-21 0 -35.5 -14.5t-14.5 -35.5v-1400q0 -21 14.5 -35.5t35.5 -14.5h100q21 0 35.5 14.5t14.5 35.5v1400 q0 21 -14.5 35.5t-35.5 14.5z"/>
<glyph unicode="" d="M2200 600v1761q0 21 -14 32t-34 5l-1404 -369q-20 -6 -34 -24.5t-14 -39.5v-1377q-118 29 -277 -23q-103 -33 -179.5 -99t-108 -145.5t-7.5 -150.5q23 -73 95 -121t167.5 -58t203.5 22q130 42 215.5 125.5t90.5 161.5v1274l1100 293v-980q-118 29 -277 -22 q-103 -34 -179.5 -99.5t-108 -145t-7.5 -151.5q23 -72 95 -120.5t167.5 -58t203.5 22.5q129 41 215 125t91 162z"/>
<glyph unicode="" d="M1065 2400h174q25 0 43 -18t18 -43v-55q40 -20 114.5 -50t138 -55t139 -63.5t131.5 -78t101 -96t61 -121.5q18 -81 14 -151.5t-28.5 -132.5t-56.5 -110.5t-70.5 -86.5t-70 -60.5t-54.5 -31.5q-38 -14 -42 -6.5t10 23.5l14 17q6 8 15 23t28 60.5t28 89t3.5 101 t-33.5 104.5q-22 37 -66 62t-96 37.5t-103.5 21t-101 20t-75.5 26.5v-1415q0 -2 -1 -6t-1 -5q-12 -114 -113.5 -217.5t-256.5 -153.5q-94 -31 -188 -33t-170.5 20.5t-132 70.5t-77.5 113q-28 87 10 181.5t131 172t219 118.5q55 17 108.5 23.5t91 5t83.5 -8.5l1 1647 q0 25 17.5 43t43.5 18z"/>
<glyph unicode="" d="M1200 1969q77 111 172 182.5t191 99t195.5 23t189 -40.5t169 -97.5t137 -140.5t91 -177t33.5 -202q0 -89 -38 -181.5t-108.5 -185t-159 -186t-200 -202t-219.5 -216t-231 -246t-222 -274.5q-99 136 -222 274.5t-231 246t-219.5 216t-200 202t-159 186t-108.5 185 t-38 181.5q0 104 34.5 202t93.5 177t140 140.5t171.5 97.5t191 40.5t195.5 -23t187.5 -99t164.5 -182.5zM1727 2024q-90 0 -172 -50.5t-149 -147.5l-212 -305l-203 311q-126 192 -307 192q-73 0 -146.5 -31t-132.5 -84t-96 -130.5t-37 -162.5q0 -25 8.5 -54t21 -56.5 t37.5 -63.5t45.5 -64t59 -71t64.5 -71t75 -77.5t77.5 -77.5t84.5 -83q98 -96 152 -149.5t143 -147t160 -175.5q71 82 160.5 176t142.5 146.5t154 152.5q56 54 84 81.5t77 77t74.5 77t64 70.5t59 71t45.5 64t37.5 63.5t21 56.5t8.5 54q0 85 -36 162.5t-93.5 130.5t-129 84 t-142.5 31z"/>
<glyph unicode="" d="M2600 1200h-400v-1200h-700v800h-500v-800h-700v1200h-397l1349 1342v-5l348 -345v308h400v-705z"/>
<glyph unicode="" d="M1137 2475q-10 -91 7.5 -205t54.5 -224.5t89.5 -219t110 -192t119 -139t113.5 -65.5q88 -17 86 85q-1 128 -147 441q126 -59 228.5 -138.5t175 -167.5t124 -188.5t79 -203.5t37.5 -211.5t2.5 -212t-30.5 -205.5q-28 -127 -76.5 -227.5t-111 -171t-143.5 -120.5 t-171 -77.5t-197 -39.5q-96 -10 -99 42t49 149q18 42 28.5 67t26 67.5t25.5 82t15 79.5q13 109 -44.5 257.5t-157.5 267.5q3 -53 -4 -125t-24.5 -158t-46 -174.5t-68.5 -173.5t-92.5 -155.5t-117.5 -121t-143 -69t-170 -0.5q-337 128 -400 550q-32 215 -3 373 q63 340 381 528q-6 -16 -20 -52q-13 -37 -20.5 -57t-20.5 -58.5t-18.5 -62.5t-13.5 -60t-6.5 -59.5t4 -52.5t15 -47.5t30 -35.5t46.5 -25.5t66 -10.5q141 -5 173 110q26 92 -13 324q-8 48 -27 152q-22 118 -32 180q-15 96 -5.5 182.5t38.5 162t66.5 139t78.5 113t75 84 t57 52.5z"/>
<glyph unicode="" d="M200 2300h400q41 0 70.5 -29.5t29.5 -70.5v-400h-600v400q0 41 29.5 70.5t70.5 29.5zM1700 2300h400q41 0 70.5 -29.5t29.5 -70.5v-400h-600v400q0 41 29.5 70.5t70.5 29.5zM2200 1600v-500q0 -232 -80.5 -436.5t-219.5 -350t-332.5 -229.5t-411.5 -84h-6h-6 q-175 0 -335 53.5t-288 153.5t-223 234t-146.5 304t-51.5 355v500h600v-498q0 -93 27.5 -181t80.5 -160.5t140 -116.5t196 -44h6h6q88 0 162 29t125.5 78t87.5 114t52.5 136t16.5 145v498h600z"/>
<glyph unicode="" d="M650 2300q145 0 248.5 -61.5t152.5 -161.5t49 -227v-298q0 -150 -100 -223v-377q51 -21 123.5 -56.5t138.5 -70.5t145.5 -79t129 -72.5t105 -60.5t58.5 -34q59 -34 79.5 -74t20.5 -120v-235q0 -21 -14.5 -35.5t-35.5 -14.5h-2200q-20 0 -35 14.5t-15 35.5v235 q0 80 20.5 120t79.5 74q499 286 700 373v376q-100 73 -100 224v298q0 127 49 227t152.5 161.5t248.5 61.5zM1865 2000q88 -1 163.5 -36.5t125 -92t78 -125.5t28.5 -140q0 -156 18 -233t80 -149q18 -21 43 -46.5t42.5 -42t34 -36t24 -34.5t5.5 -31.5t-16 -31.5 q-24 -27 -58 -53t-82.5 -53t-114 -46t-136.5 -23v-199q145 -63 296.5 -135t201.5 -100q49 -28 75.5 -61.5t26.5 -81.5v-100q0 -21 -13 -35.5t-33 -14.5h-754v328q0 51 -6.5 88.5t-25 73.5t-52 66.5t-85.5 60.5l-131 75v35q-83 5 -162 33q-69 39 -140 76q-40 30 -73 66 q-14 15 -15 31.5t7.5 31.5t26.5 34.5t36.5 36.5t44 41.5t44.5 46.5q62 72 81.5 150t19.5 232q0 71 28 140t77.5 125.5t125.5 92t164 36.5z"/>
<glyph unicode="" d="M1800 2100h100l300 -900l200 -700v-300h-900v300l100 700h-800l100 -700v-300h-900v300l200 700l300 900h100v300l400 -100v-200h100v100h200v-100h100v200l400 100v-300zM900 1900v-500h100v500h-100zM1400 1900v-500h100v500h-100zM900 0h-900v100h900v-100zM2400 0 h-900v100h900v-100z"/>
<glyph unicode="" d="M2600 0h-1077l-81 900h-484l-81 -900h-1077l862 2400h417l-41 -600h324l-40 600h416zM1029 1700l-53 -600h448l-54 600h-341z"/>
<glyph unicode="" d="M975 2375q129 0 252 -34t227 -95.5t191.5 -149t149 -192t95.5 -227.5t34 -251q0 -278 -152 -514l588 -588q15 -14 15 -35t-15 -36l-213 -213q-15 -15 -36 -15t-35 15l-588 588q-235 -152 -513 -152q-129 0 -252 34t-227 95.5t-192 149t-149 192t-95.5 227.5t-34.5 251.5 t34.5 251.5t95.5 227.5t149 192t192 149t227 95.5t252 34zM974.5 2073q-131.5 0 -251.5 -51t-206.5 -138t-138 -207t-51.5 -251.5t51.5 -251.5t138 -207t206.5 -138t251.5 -51t251.5 51t207 138t138.5 207t51.5 251.5t-51.5 251.5t-138.5 207t-207 138t-251.5 51z"/>
<glyph unicode="" d="M1636 2300h878q45 0 77.5 -6.5t54 -16t40 -31t30 -41.5t30.5 -58l114 -247h190q21 0 35.5 -14.5t14.5 -35.5v-100q0 -21 -14.5 -35.5t-35.5 -14.5h-92l42 -100v-1050q0 -21 -14.5 -35.5t-35.5 -14.5h-200q-21 0 -35.5 14.5t-14.5 35.5v150h-800v100h500v200h-400v273 q0 74 -28 100.5t-103 26.5h-94l-150 400h1031q-52 223 -69 260q-23 40 -60 40h-904q-37 0 -60 -40q-5 -12 -16 -32.5t-20 -34.5l-8 -15q-82 57 -160 80l45 89q28 56 54.5 87t70 48.5t107.5 17.5zM136 1900h1128q66 0 107 -15.5t68 -46t57 -91.5l164 -447h190 q21 0 35.5 -14.5t14.5 -35.5v-100q0 -21 -14.5 -35.5t-35.5 -14.5h-92l42 -100v-1150q0 -21 -14.5 -35.5t-35.5 -14.5h-200q-21 0 -35.5 14.5t-14.5 35.5v150h-1600v-150q0 -21 -14.5 -35.5t-35.5 -14.5h-200q-21 0 -35.5 14.5t-14.5 35.5v1150l42 100h-92q-21 0 -35.5 14.5 t-14.5 35.5v100q0 21 14.5 35.5t35.5 14.5h190l164 447q30 61 57 91.5t68 46t107 15.5zM1277 1700h-1154q-37 0 -60 -40q-8 -17 -37.5 -132t-55.5 -221l-26 -107h1512q-102 423 -119 460q-23 40 -60 40zM2600 1400v-200h200l100 100v210zM-300 700l100 -100h300v200 l-400 110v-210zM1300 800v-200h300l100 100v210zM300 400v-200h800v200h-800z"/>
<glyph unicode="" d="M1000 2700h400q41 0 70.5 -33t29.5 -75v-92h198q41 0 71.5 -30.5t30.5 -71.5v-198q0 -41 -30.5 -70.5t-71.5 -29.5h-996q-41 0 -71.5 29.5t-30.5 70.5v198q0 41 30.5 71.5t71.5 30.5h198v92q0 42 30 75t70 33zM1900 2400h250q21 0 35.5 -14.5t14.5 -35.5v-2300 q0 -21 -14.5 -35.5t-35.5 -14.5h-1900q-21 0 -35.5 14.5t-14.5 35.5v2300q0 21 14.5 35.5t35.5 14.5h250v-300q0 -41 29.5 -70.5t70.5 -29.5h1200q41 0 70.5 29.5t29.5 70.5v300zM600 1800v-100h1300v100h-1300zM500 1600v-100h1400v100h-1400zM500 1400v-100h1000v100 h-1000zM600 1200v-100h1300v100h-1300zM500 1000v-100h1400v100h-1400zM500 800v-100h1400v100h-1400zM500 600v-100h1400v100h-1400zM500 400v-100h500v100h-500z"/>
<glyph unicode="" d="M300 2500h1800q41 0 83.5 -26.5t61.5 -62.5l66 -132q84 -31 158.5 -62t155 -70t128 -77.5t47.5 -69.5v-400q0 -41 -29.5 -70.5t-70.5 -29.5h-100q-41 0 -70.5 29.5t-29.5 70.5v400q0 32 -100 86v-2036q0 -21 -14.5 -35.5t-35.5 -14.5h-200q-21 0 -35.5 14.5t-14.5 35.5 v150h-1800v-150q0 -21 -14.5 -35.5t-35.5 -14.5h-200q-21 0 -35.5 14.5t-14.5 35.5v2036q-100 -54 -100 -86v-400q0 -42 -26 -71t-67 -29h-100q-42 0 -74.5 29.5t-32.5 70.5v400q0 31 47.5 69.5t127.5 77t154.5 69.5t159.5 62l66 133q19 36 61.5 62.5t83.5 26.5zM2150 2100 h-1900q-21 0 -35.5 -14.5t-14.5 -35.5v-971q0 -21 14 -40.5t33 -26.5q13 -5 38 -13t114 -29.5t190.5 -37.5t267 -29.5t343.5 -13.5t342 13t270 31t187 36t118 30l36 13q19 7 33 26.5t14 40.5v971q0 21 -14.5 35.5t-35.5 14.5zM100 590l100 -90h300v200l-400 100v-210z M1900 700v-200h300l100 90v210zM900 500v-200h700v200h-700z"/>
<glyph unicode="" d="M292 2526l141 -141q-157 -153 -245 -356.5t-88 -430.5t88 -430.5t245 -356.5l-141 -142q-185 181 -288.5 421t-103.5 507.5t103.5 507.5t288.5 421zM1967 2385l141 141q185 -181 288.5 -421t103.5 -507.5t-103.5 -507.5t-288.5 -421l-141 142q157 153 245 356.5t88 430.5 t-88 430.5t-245 356.5zM656 2162l141 -141q-86 -82 -134.5 -191.5t-48.5 -232t48.5 -232t134.5 -190.5l-141 -142q-114 110 -178 256t-64 309t64 308.5t178 255.5zM1603 2021l141 141q114 -110 178 -255.5t64 -308.5t-64 -309t-178 -256l-141 142q86 81 134.5 190.5 t48.5 232t-48.5 232t-134.5 191.5zM1200 1848q104 0 177.5 -73t73.5 -177q0 -82 -48 -147t-124 -90l121 -1361h-400l121 1361q-76 25 -124 90t-48 147q0 104 73.5 177t177.5 73z"/>
<glyph unicode="" d="M850 2600h700q21 0 35.5 -14.5t14.5 -35.5v-100q0 -21 -14.5 -35.5t-35.5 -14.5h-50v-400h400q124 0 212 -88t88 -212v-1400q0 -124 -88 -212t-212 -88h-100q0 -41 -29.5 -70.5t-70.5 -29.5t-70.5 29.5t-29.5 70.5h-800q0 -41 -29.5 -70.5t-70.5 -29.5t-70.5 29.5 t-29.5 70.5h-100q-124 0 -212 88t-88 212v1400q0 124 88 212t212 88h400v400h-50q-21 0 -35.5 14.5t-14.5 35.5v100q0 21 14.5 35.5t35.5 14.5zM1100 2400v-400h200v400h-200zM1900 1800h-1400q-41 0 -70.5 -29.5t-29.5 -70.5v-200q0 -41 29.5 -70.5t70.5 -29.5h1400 q41 0 70.5 29.5t29.5 70.5v200q0 41 -29.5 70.5t-70.5 29.5zM1900 1200h-1400q-41 0 -70.5 -29.5t-29.5 -70.5v-800q0 -41 29.5 -70.5t70.5 -29.5h1400q41 0 70.5 29.5t29.5 70.5v800q0 41 -29.5 70.5t-70.5 29.5z"/>
<glyph unicode="" d="M1301 2422l239 76q22 8 35 0.5t10 -30.5l146 -668h113q21 0 37.5 -28t16.5 -60q0 -16 -56.5 -51.5t-141.5 -67.5v-165q0 -149 -100 -222v-250q51 -21 123.5 -56.5t138.5 -70.5t146 -79.5t128.5 -72.5t105.5 -60.5t58 -33.5q59 -34 79.5 -74t20.5 -120v-239 q0 -21 -14.5 -35.5t-35.5 -14.5h-2200q-21 0 -35.5 14.5t-14.5 35.5v239q0 80 20.5 120t79.5 74q510 291 700 373v249q-100 72 -100 223v165q-85 32 -141.5 67.5t-56.5 51.5q0 32 16.5 60t37.5 28h113l146 658q-3 24 10 32.5t35 0.5l239 -68q21 -8 51 -8.5t51 7.5z"/>
<glyph unicode="" d="M1200 2299q82 -1 155.5 -28t128 -72t94.5 -103t60.5 -123t20.5 -129q0 -179 22.5 -269.5t94.5 -173.5q21 -25 50.5 -54t51 -48.5t41.5 -42t29 -40t7.5 -36.5t-17.5 -36q-27 -30 -69.5 -61t-98.5 -62t-127.5 -53t-142.5 -27v-230q86 -44 242.5 -103t286 -106t158.5 -64 q55 -31 84 -70t29 -96v-122q0 -21 -14.5 -35.5t-35.5 -14.5h-2100q-21 0 -35.5 14.5t-14.5 35.5v122q0 57 28.5 96t83.5 70q30 17 159.5 64t286 106t242.5 103v230q-71 5 -142.5 27t-127.5 53t-98.5 62t-69.5 61q-16 17 -17.5 36t7.5 36.5t29 40t41.5 42t51 48.5t50.5 54 q72 83 94.5 173.5t22.5 269.5q0 64 20.5 129t60.5 123t94.5 103t128 72t155.5 28z"/>
<glyph unicode="" d="M1500 2400v-650q0 -21 14.5 -35.5t35.5 -14.5h650v-1650q0 -21 -14.5 -35.5t-35.5 -14.5h-1800q-21 0 -35.5 14.5t-14.5 35.5v2300q0 21 14.5 35.5t35.5 14.5h1150zM2200 1800h-550q-21 0 -35.5 14.5t-14.5 35.5v550z"/>
<glyph unicode="" d="M1287 2377q82 -10 151 -24t150.5 -38.5t150 -64.5t115.5 -93q21 -24 34 -54.5t17 -67t4.5 -64t-1.5 -72t-2 -64.5q0 -33 -25 -74q151 -50 276.5 -153t206.5 -235t115.5 -290.5t10.5 -315.5q-24 -159 -106 -301t-201 -243.5t-272 -160.5t-314 -59q-158 0 -311 56 q-169 -43 -351 -55q-328 -22 -641 60q-58 16 -101.5 30.5t-97 38.5t-95 58t-66.5 77q-17 28 -24.5 69t-7.5 72t2.5 81.5t2.5 70.5q0 81 72 147q-79 73 -79 147v196q0 104 134 192q-34 49 -34 102v196q0 104 135 192q-35 49 -35 102v196q0 211 450 316q341 80 737 30z M993 2247q-291 0 -507 -67q-7 -2 -36.5 -11t-43.5 -13.5t-41.5 -14.5t-43.5 -20t-35 -23t-31 -29.5t-17 -35.5l1 -5q5 -17 15.5 -32t28.5 -28t33.5 -23.5t43 -21t43 -17t47.5 -15t42 -11.5t41 -10l31 -7q193 -47 431 -47q247 -1 495 64q4 1 29.5 7.5t34.5 9t34 10t36.5 13 t32.5 14.5t32.5 18t25 21t22 26t12.5 30l-2 5q-4 16 -15 31t-24 26t-34 22.5t-36.5 19t-41 16.5t-38.5 13t-38 11.5t-31 8.5q-210 65 -496 65zM287 1653q-30 -12 -56.5 -28.5t-42 -31t-27 -27.5t-15.5 -21l-5 -7q5 -17 15.5 -32t28.5 -28t33.5 -23.5t43 -21t43 -17t47 -15 t42 -11t41 -10t31.5 -7.5q161 -39 379 -47q48 87 139 186q-164 2 -385 50t-312 91zM1596 1610q-127 0 -258 -49q-112 -45 -202.5 -124.5t-146.5 -180t-80.5 -212.5t-10 -231t68.5 -228q76 -151 218.5 -254t309.5 -125q87 -12 171 -5t163 38t148.5 76t128 108t100.5 134 t67 153.5t28 168.5q3 95 -21 188.5t-69.5 174t-111.5 149t-144 116.5t-170.5 75.5t-188.5 27.5zM189 1163q-2 -1 -16 -7t-19 -8t-18.5 -8.5t-20.5 -10.5t-18.5 -11t-18 -13t-14.5 -13.5t-13 -16t-7 -16.5l-2 -6l1 -5q7 -23 29.5 -44.5t47 -35.5t63 -29t59.5 -21.5t54 -15.5 l12 -4q177 -51 429 -62q-6 95 6 191q-354 26 -554 136zM143 628l-11 16q-24 -7 -42 -19t-26.5 -23t-13.5 -21.5t-6 -16.5l-1 -6q5 -18 16 -33.5t29 -29t35.5 -24.5t44 -21t45 -17t48.5 -15t44 -11.5t42 -10t34 -8.5q64 -15 140.5 -23.5t130 -10.5t144 -3.5t135.5 -3.5 q-69 82 -102 145q-129 6 -273 24t-267.5 48.5t-145.5 63.5z"/>
<glyph unicode="" d="M2100 2500q41 0 70.5 -29.5t29.5 -70.5v-400h-2000v400q0 41 29.5 70.5t70.5 29.5t70.5 -29.5t29.5 -70.5h100q0 41 29.5 70.5t70.5 29.5t70.5 -29.5t29.5 -70.5h100q0 41 29.5 70.5t70.5 29.5t70.5 -29.5t29.5 -70.5h100q0 41 29.5 70.5t70.5 29.5t70.5 -29.5 t29.5 -70.5h100q0 41 29.5 70.5t70.5 29.5t70.5 -29.5t29.5 -70.5h100q0 41 29.5 70.5t70.5 29.5t70.5 -29.5t29.5 -70.5h100q0 41 29.5 70.5t70.5 29.5zM2200 1900v-1850q0 -21 -14.5 -35.5t-35.5 -14.5h-1900q-21 0 -35.5 14.5t-14.5 35.5v1850h2000zM600 1600v-100h1300 v100h-1300zM500 1400v-100h1000v100h-1000zM600 1200v-100h1300v100h-1300zM500 1000v-100h1400v100h-1400zM500 800v-100h1400v100h-1400zM500 600v-100h1400v100h-1400zM500 400v-100h500v100h-500z"/>
<glyph unicode="" d="M2200 1877v-77h300v-100h-300v-300h300v-100h-300v-300h300v-100h-300v-300h300v-100h-300v-300h300v-200h-2500v2500h200v-300h300v300h100v-300h300v300h100v-300h300v300h100v-300h300v300h100v-300h300v300h100v-52q67 50 150 50q104 0 177 -73t73 -177t-73 -177 t-177 -73q-29 0 -64 9zM500 2100h-300v-300h300v300zM900 2100h-300v-300h300v300zM2100 1998v102h-300v-300h169zM1000 1800h300v300h-300v-300zM1700 2100h-300v-300h300v300zM1800 1700v-108q13 -3 27 -7l77 115h-104zM200 1400h300v300h-300v-300zM900 1700h-300v-300 h300v300zM1000 1400h300v300h-300v-300zM1700 1700h-300v-300h105q16 73 69 125.5t126 67.5v107zM2100 1700h-17l-133 -203q33 -44 44 -97h106v300zM1751 1598h3h-3zM1000 1300v-153q21 -16 38 -36l426 189h-64v-28l-100 -44v72h-300zM500 1300h-300v-300h300v300zM600 1000 h5q19 86 87.5 142t157.5 56q25 0 50 -5v107h-300v-300zM2100 1300h-105q-14 -74 -67.5 -128t-127.5 -69v-103h300v300zM1700 1000v103q-79 16 -135 78l-165 -73v-108h300zM1300 1063l-143 -63h143v63zM500 900h-300v-300h247l53 61v239zM600 777l37 42q-24 39 -32 81h-5 v-123zM1300 900h-205q-18 -94 -95 -152v-148h300v300zM1700 900h-300v-300h300v300zM2100 900h-300v-300h300v300zM900 600v103q-25 -5 -50 -5q-52 0 -101 21l-103 -119h254zM200 315l160 185h-160v-185zM900 500h-300v-300h300v300zM1300 500h-300v-300h300v300zM1700 500 h-300v-300h300v300zM2100 500h-300v-300h300v300zM500 432l-201 -232h201v232z"/>
<glyph unicode="" d="M1250 2400h400q21 0 35.5 -14.5t14.5 -35.5v-2150h100v1450q0 21 14.5 35.5t35.5 14.5h400q21 0 35.5 -14.5t14.5 -35.5v-1450h200v-200h-2700v200h200v450q0 21 14.5 35.5t35.5 14.5h400q21 0 35.5 -14.5t14.5 -35.5v-450h100v1050q0 21 14.5 35.5t35.5 14.5h400 q21 0 35.5 -14.5t14.5 -35.5v-1050h100v2150q0 21 14.5 35.5t35.5 14.5z"/>
<glyph unicode="" d="M1206 2312q226 0 429 -86t358 -241l-793 -789v-1115q-148 0 -290.5 40t-265 112t-226 175t-176.5 225t-114 267t-41 296q0 152 40.5 297t112.5 267t175.5 225t226 175t267.5 112t297 40zM1404 1196l789 789q108 -107 181.5 -237.5t109.5 -268t36 -283t-36 -283 t-109.5 -268t-181.5 -237.5zM1300 1103l789 -788q-162 -163 -362 -245t-427 -82v1115z"/>
<glyph unicode="" d="M1150 2200q145 0 248.5 -61.5t152.5 -161.5t49 -227v-298q0 -150 -100 -223v-377q51 -21 123.5 -56.5t138.5 -70.5t145.5 -79t129 -72.5t105 -60.5t58.5 -34q59 -34 79.5 -74t20.5 -120v-250q0 -11 -8 -22t-19 -11h-2246q-11 0 -19 11t-8 22v250q0 80 20.5 120t79.5 74 q513 292 700 373v376q-100 73 -100 224v298q0 127 49 227t152.5 161.5t248.5 61.5zM200 1900q76 0 134.5 -24.5t94 -67.5t53.5 -99t18 -122v-178q0 -29 -1 -42.5t-5.5 -34t-15 -32t-30 -24.5t-48.5 -22v-263q77 -23 185 -76q-202 -102 -545 -297l-14 -8q-73 -42 -112 -93.5 t-53 -116.5h-442q-8 0 -13.5 7.5t-5.5 15.5v174q0 51 22 79.5t69 55.5q1 1 69 42t129 76t151.5 77.5t159.5 63.5v262q-29 10 -48.5 22.5t-30 24t-15 32t-5.5 34.5t-1 43v178q0 66 18 121.5t53.5 99t94 68t134.5 24.5zM2100 1900q76 0 134.5 -24.5t94 -67.5t53.5 -99t18 -122 v-178q0 -29 -1 -42.5t-5.5 -34t-15 -32t-30 -24.5t-48.5 -22v-263q69 -21 159.5 -63.5t151.5 -77.5t129.5 -76.5l68.5 -41.5q47 -27 69 -55.5t22 -79.5v-174q0 -8 -5.5 -15.5t-13.5 -7.5h-442q-15 65 -53.5 116.5t-111.5 93.5l-36 20q-332 192 -521 286q105 52 183 75v262 q-29 10 -48.5 22.5t-30 24t-15 32t-5.5 34.5t-1 43v178q0 66 18 122t53.5 99t94 67.5t134.5 24.5z"/>
<glyph unicode="" d="M750 2500q50 0 99 -7l600 -86q20 -3 31 -19.5t6 -36.5l-275 -1103q-5 -20 -23.5 -34t-38.5 -14h-149v-1100l-100 -99v999l-33 200h-34l-33 -200v-100h-100v-100h100v-100h-100v-100h100v-100h-100v-100h100v-100h-100v-100h100v-100h-100v-100h100v-97l-3 -3h-109 l-188 200v1100h-149q-20 0 -38.5 14t-23.5 34l-275 1103q-5 20 6 36.5t31 19.5l600 86q49 7 99 7zM750 2294q-80 0 -137 -57t-57 -137t57 -137t137 -57t137 57t57 137t-57 137t-137 57zM1634 2284l304 -846q8 -19 0.5 -41t-24.5 -34l-134 -89l610 -928l-47 -272l-90 -61 l-276 55l-608 927l-108 -75q-30 -21 -61 0v120q72 4 120 50t66 120z"/>
<glyph unicode="" d="M1800 2400h100q41 0 70.5 -29.5t29.5 -70.5v-100h200q41 0 70.5 -29.5t29.5 -70.5v-300h-2300v300q0 41 29.5 70.5t70.5 29.5h200v100q0 41 29.5 70.5t70.5 29.5h100q41 0 70.5 -29.5t29.5 -70.5v-100h1100v100q0 41 29.5 70.5t70.5 29.5zM2300 1700v-1600 q0 -41 -29.5 -70.5t-70.5 -29.5h-2100q-41 0 -70.5 29.5t-29.5 70.5v1600h2300zM200 1300v-300h300v300h-300zM600 1300v-300h300v300h-300zM1000 1300v-300h300v300h-300zM1400 1300v-300h300v300h-300zM1800 1300v-300h300v300h-300zM200 900v-300h300v300h-300zM600 900 v-300h300v300h-300zM1000 900v-300h300v300h-300zM1400 900v-300h300v300h-300zM1800 900v-300h300v300h-300zM200 500v-300h300v300h-300zM600 500v-300h300v300h-300zM1000 500v-300h300v300h-300zM1400 500v-300h300v300h-300zM1800 500v-300h300v300h-300z"/>
<glyph unicode="" d="M-72 2528l142 -142q-81 -88 -125.5 -200t-44.5 -236q0 -142 58.5 -268.5t161.5 -217.5l-141 -142q-131 120 -205 282.5t-74 345.5q0 164 60 313t168 265zM1030 2386l142 142q108 -116 168 -265t60 -313q0 -183 -74 -345.5t-205 -282.5l-141 142q103 91 161.5 217.5 t58.5 268.5q0 124 -44.5 236t-125.5 200zM256 2201l141 -142q-35 -50 -35 -109q0 -49 23 -90.5t63 -67.5l-142 -142q-67 55 -105.5 133t-38.5 167q0 140 94 251zM703 2059l141 142q95 -111 95 -251q0 -89 -39 -167t-106 -133l-142 142q40 26 63.5 67.5t23.5 90.5 q0 60 -36 109zM550 2048q23 0 35.5 -12t13.5 -24l1 -12v-400l100 -400v-500h1600q41 0 70.5 -29.5t29.5 -70.5v-300q0 -82 -59 -141t-141 -59v-100h-2000v100q-82 0 -141 59t-59 141v300q0 41 29.5 70.5t70.5 29.5h300v500l100 400v400q0 48 50 48zM1000 500v-100h100v100 h-100zM1200 500v-100h100v100h-100zM1400 500v-100h100v100h-100zM1600 500v-100h100v100h-100zM1900 500v-200h200v200h-200z"/>
<glyph unicode="" d="M1750 2400q149 0 276 -73.5t200.5 -200.5t73.5 -276q0 -174 -100 -316v-1251q0 -117 -83.5 -200t-199.5 -83h-334q-116 0 -199.5 83t-83.5 200v417h-100q0 -41 -29.5 -70.5t-70.5 -29.5h-900q-41 0 -70.5 29.5t-29.5 70.5v700q0 41 29.5 70.5t70.5 29.5h900 q41 0 70.5 -29.5t29.5 -70.5h100v134q-100 143 -100 316q0 112 43.5 214t117 175.5t175.5 117t214 43.5zM1750 2200q-145 0 -247.5 -102.5t-102.5 -247.5t102.5 -247.5t247.5 -102.5t247.5 102.5t102.5 247.5t-102.5 247.5t-247.5 102.5zM1773 2098q96 -9 161.5 -80 t65.5 -168q0 -104 -73 -177t-177 -73q-97 0 -168 65.5t-80 161.5q47 -27 99 -27q82 0 140.5 58.5t58.5 140.5q0 52 -27 99zM1500 500v-100h100v100h-100zM1700 500v-100h100v100h-100zM1900 500v-100h100v100h-100zM1600 300v-100h100v100h-100zM1800 300v-100h100v100h-100 z"/>
<glyph unicode="" d="M1726 959l291 -885l-768 551l-764 -554l291 883l-776 546h958l294 900h3l292 -900h944zM1638 589l-147 447l379 264h-468l-149 459l-150 -459h-479l387 -268l-145 -437l383 277zM481 68l4 3l-1 -3h-3z"/>
<glyph unicode="" d="M1726 959l291 -885l-768 551l-764 -554l291 883l-776 546h958l294 900h3l292 -900h944zM481 68l4 3l-1 -3h-3z"/>
<glyph unicode="" d="M1867 1201l213 214q84 83 110 196.5t-10 229t-127 206.5l-164 164q-88 89 -201.5 122t-225.5 5.5t-195 -110.5l-525 -525q-83 -83 -111 -195t5 -225.5t121 -201.5l1 -1l281 -282l213 213l-281 280l-2 3q-27 27 -40.5 61t-8 71t33.5 65l525 525q30 29 67.5 34t70.5 -9.5 t60 -41.5l164 -164q29 -29 45 -66t12.5 -76t-30.5 -66l-157 -157q112 -118 156 -269zM1324 1646l270 -270q91 -92 126.5 -207.5t9.5 -229t-110 -196.5l-524 -525q-83 -82 -197 -108t-230.5 9.5t-206.5 124.5l-164 164q-88 88 -121 202t-5.5 226t111.5 196l209 209 q45 -151 159 -266l-156 -156q-29 -28 -34.5 -65.5t8.5 -71.5t41 -62l164 -164q29 -28 66.5 -44t77 -12.5t66.5 30.5l524 525q27 27 30.5 66t-12.5 76.5t-44 66.5l-272 271l212 212z"/>
<glyph unicode="" d="M1235 2042q158 0 309.5 -30.5t275 -82t238 -118.5t203 -141t165 -147.5t130 -140.5t91.5 -118.5t56 -82.5l19 -30l-26.5 -26.5t-71.5 -67.5t-114.5 -100.5t-151 -116.5t-183 -125t-208 -117t-230.5 -100.5t-245.5 -67.5t-257 -26t-256 25.5t-246 69t-229.5 99.5 t-209.5 118t-182 123.5t-152 117.5t-113.5 99.5t-73 68.5l-25 26q6 11 18.5 31t56 81t92.5 120t129 139t165.5 149t202 139t238.5 119.5t274.5 81t310.5 31.5zM1461 1625q80 -55 127 -142t47 -188q0 -109 -53.5 -201.5t-145.5 -146t-201 -53.5t-201.5 53.5t-146 146 t-53.5 201.5q0 101 47 187.5t127 142.5q-154 -25 -318 -84q-53 -118 -53 -246q0 -122 47 -232.5t127 -191t191 -127.5t232.5 -47t232.5 47t191 127.5t127.5 191t47.5 232.5q0 131 -56 252q-160 54 -316 78zM2023 1446q15 -78 15 -151q0 -165 -63 -312.5t-175 -258.5 q112 45 222.5 104.5t198 119t152 109.5t112.5 94q-71 65 -193 145t-269 150zM444 1434q-130 -67 -238 -142.5t-178 -140.5q49 -45 106.5 -91.5t139 -105t182.5 -116.5t204 -103q-108 110 -168 254.5t-60 305.5q0 66 12 139zM1038 1268l-81 -81q37 -95 117 -146l74 73 q-45 22 -74 63t-36 91z"/>
<glyph unicode="" d="M1115 0h-251l166 432q-112 17 -228 53t-217 83t-200 102.5t-181 112.5t-156 113t-129.5 105t-96.5 86.5t-62 59.5l-21 22q6 11 18.5 30.5t56 80.5t92.5 119.5t129 138.5t166 149t202 139t238 119.5t274.5 80.5t310.5 31q195 0 417 -61l162 404h249zM1814 1420l173 443 q98 -53 191 -120.5t163.5 -132t132.5 -130t104.5 -120.5t74 -98t45.5 -67l15 -24l-35.5 -35.5t-97 -89t-154 -128.5t-199 -141.5t-238.5 -142t-267.5 -116t-290.5 -76.5l155 395q110 84 174 209t64 268q0 49 -10 106zM999 1644q-154 -24 -318 -83q-53 -118 -53 -247 q0 -148 67.5 -276.5t184.5 -211t260 -103.5l76 192q-107 2 -197 56t-142 145t-52 198q0 101 47 188t127 142zM2014 1466q15 -79 15 -152q0 -164 -63 -311.5t-175 -258.5q112 45 222.5 104.5t198 119t152 109.5t112.5 94q-71 65 -193 144.5t-269 150.5zM436 1454 q-130 -68 -238 -143.5t-178 -139.5q49 -45 106 -91.5t138.5 -105.5t182.5 -117t204 -103q-108 111 -168 255.5t-60 304.5q0 67 13 140zM1029 1288l-81 -81q37 -95 118 -146l73 73q-45 22 -74 62.5t-36 91.5z"/>
<glyph unicode="" d="M-78 2111l420 359q48 40 114.5 32.5t106.5 -56.5l147 -171q-206 -81 -374.5 -223.5t-282.5 -329.5l-150 175q-40 48 -34.5 111t53.5 103zM2064 2470l422 -355q49 -40 55 -103t-34 -111l-156 -187q-113 188 -281 331.5t-372 225.5l145 174q40 49 106 56.5t115 -31.5z M1200 2200q149 0 291.5 -39.5t263.5 -110.5t222.5 -172.5t172.5 -222.5t110.5 -263.5t39.5 -291.5t-39.5 -291.5t-110.5 -263.5t-172.5 -222.5t-222.5 -172.5t-263.5 -110.5t-291.5 -39.5t-291.5 39.5t-263.5 110.5t-222.5 172.5t-172.5 222.5t-110.5 263.5t-39.5 291.5 t39.5 291.5t110.5 263.5t172.5 222.5t222.5 172.5t263.5 110.5t291.5 39.5zM1200 1900q-162 0 -310.5 -63.5t-255.5 -170.5t-170.5 -255.5t-63.5 -311t63.5 -310.5t170.5 -255t255.5 -170.5t311 -63.5t310.5 63.5t255 170.5t170.5 255t63.5 310.5t-63.5 311t-170.5 255.5 t-255.5 170.5t-310.5 63.5zM1150 1700h98q21 0 36.5 -15.5t15.5 -36.5v-375q42 -29 71.5 -75t29.5 -98q0 -83 -59 -141.5t-142 -58.5q-54 0 -100 27t-72 73h-178q-21 0 -35.5 14.5t-14.5 35.5v95q0 21 15 38t35 17h175q5 14 11 24.5t15 18.5t13.5 11.5t18 10.5t17.5 10v373 q0 21 15 36.5t35 15.5z"/>
<glyph unicode="" d="M1200 2400q163 0 318.5 -43t287 -120.5t242.5 -188.5t188.5 -242.5t120.5 -287t43 -318.5t-43 -318.5t-120.5 -287t-188.5 -242.5t-242.5 -188.5t-287 -120.5t-318.5 -43t-318.5 43t-287 120.5t-242.5 188.5t-188.5 242.5t-120.5 287t-43 318.5t43 318.5t120.5 287 t188.5 242.5t242.5 188.5t287 120.5t318.5 43zM1200 2100q-183 0 -349.5 -71.5t-287 -192t-192 -287t-71.5 -349.5t71.5 -349.5t192 -287t287 -192t349.5 -71.5t349.5 71.5t287 192t192 287t71.5 349.5t-71.5 349.5t-192 287t-287 192t-349.5 71.5zM1651 1715l70 -70 q14 -15 14 -35.5t-14 -35.5l-327 -327q6 -26 6 -48q0 -83 -58.5 -141.5t-141.5 -58.5q-52 0 -98.5 29.5t-75.5 71.5h-276q-20 0 -35 15.5t-15 36.5v96q0 20 15 36t35 16h276q29 42 75.5 71.5t98.5 29.5q22 0 57 -10l324 324q14 14 35 14t35 -14z"/>
<glyph unicode="" d="M1050 2700h300q20 0 35 -16t15 -37v-247q-79 9 -200 9t-200 -9v247q0 21 15 37t35 16zM2221 2246l141 -141q15 -15 15 -35.5t-15 -35.5l-148 -148q-47 61 -99 113q-50 50 -113 99l148 148q15 15 35.5 15t35.5 -15zM1200 2213q149 0 291.5 -39.5t263.5 -110.5 t222.5 -172.5t172.5 -222t110.5 -263t39.5 -292t-39.5 -292t-110.5 -263t-172.5 -222t-222.5 -172.5t-263.5 -111t-291.5 -40t-291.5 40t-263.5 111t-222.5 172.5t-172.5 222t-110.5 263t-39.5 292t39.5 292t110.5 263t172.5 222t222.5 172.5t263.5 110.5t291.5 39.5z M1200 1913q-162 0 -310.5 -63t-255.5 -170.5t-170.5 -255.5t-63.5 -310.5t63.5 -310.5t170.5 -255.5t255.5 -171t311 -63.5t310.5 63.5t255 171t170.5 255.5t63.5 310.5t-63.5 310.5t-170.5 255.5t-255.5 170.5t-310.5 63zM1150 1700h100q21 0 35.5 -14.5t14.5 -35.5v-364 q46 -27 73 -72.5t27 -100t-27 -100t-73 -72.5v-89q0 -21 -15 -36.5t-35 -15.5h-100q-20 0 -35 15.5t-15 36.5v89q-46 27 -73 72.5t-27 100t27 100t73 72.5v364q0 21 14.5 35.5t35.5 14.5z"/>
<glyph unicode="" d="M1900 2700v-403q-12 1 -50 1t-50 -1v403h100zM1309 2562l302 -302q-51 -17 -100 -42l-273 273zM2462 2491l-273 -273q-49 25 -99 42l302 302zM1850 2100q136 0 258 -53.5t212 -148.5q76 -8 128 -64.5t52 -133.5v-1100q0 -82 -59 -141t-141 -59v-100l-150 -100l-150 100 v100h-1600v-100l-150 -100l-150 100v100q-82 0 -141 59t-59 141v1100q0 82 58.5 141t141.5 59h1282q90 94 211 147t257 53zM1000 2100h341q-49 -46 -90 -100h-251v100zM2700 2000h-251q-40 53 -90 100h341v-100zM1850 1890q-90 0 -171.5 -35t-140 -94t-93.5 -140.5t-35 -171 t35 -171t93.5 -140t140 -93.5t171.5 -35t171 35t140 93.5t94 140t35 171t-35 171t-94 140.5t-140 94t-171 35zM1850 1790q92 0 170.5 -45.5t124 -124t45.5 -170.5t-45.5 -170.5t-124 -124t-170.5 -45.5t-170.5 45.5t-124 124t-45.5 170.5q0 61 24 122q19 -28 49.5 -45 t66.5 -17q58 0 99 41t41 99q0 36 -17 66.5t-45 49.5q61 24 122 24zM1200 1500h-900q-54 0 -99.5 -27.5t-72.5 -72.5h1072v100zM100 1300v-100h1100v100h-1100zM100 1100v-100h1100v100h-1100zM1200 900h-1072q27 -46 72.5 -73t99.5 -27h900v100z"/>
<glyph unicode="" d="M1199 2403q163 0 318.5 -43.5t287 -121t242.5 -188.5t188 -242.5t120.5 -287t43.5 -318.5q0 -25 -1.5 -48t-4 -40t-7 -51.5t-7.5 -62.5h-304q4 25 10 62t8 52.5t4 39t2 48.5q0 122 -32.5 239t-90.5 216t-141 182t-181.5 141.5t-215 91t-239 32.5t-239.5 -32.5 t-215.5 -90.5t-181.5 -141t-141 -182t-90.5 -215.5t-32.5 -239t32.5 -239t90 -215t140.5 -182t182 -141t216 -90t240 -32.5q146 1 256 35t227 108l-152 212q-12 17 -6 28.5t27 11.5h684q20 0 30.5 -14.5t4.5 -33.5l-221 -644q-6 -20 -19 -22.5t-25 14.5l-148 205l-5 -4 q-146 -95 -320.5 -145.5t-332.5 -50.5q-172 0 -331.5 43t-291 120.5t-240 188t-183 242.5t-115 286.5t-40.5 318.5q0 163 43 318.5t120.5 287t188.5 242.5t242.5 188t287 120.5t318.5 43.5zM1651 1715l70 -70q14 -15 14 -35.5t-14 -35.5l-327 -327q6 -26 6 -48 q0 -83 -58.5 -141.5t-141.5 -58.5q-52 0 -98.5 29.5t-75.5 71.5h-276q-20 0 -35 15.5t-15 36.5v96q0 20 15 36t35 16h276q29 42 75.5 71.5t98.5 29.5q22 0 57 -10l324 324q14 14 35 14t35 -14z"/>
<glyph unicode="" d="M2300 2601v-408q44 -13 72 -50.5t28 -83.5v-58h250q21 0 35.5 -14.5t14.5 -35.5v-50q41 0 70.5 -29.5t29.5 -71.5v-500q0 -41 -29.5 -70t-70.5 -29v-50q0 -21 -14.5 -35.5t-35.5 -14.5h-250v-1150q0 -21 -14.5 -35.5t-35.5 -14.5h-200q-21 0 -35.5 14.5t-14.5 35.5v150 h-1800v-150q0 -21 -14.5 -35.5t-35.5 -14.5h-200q-21 0 -35.5 14.5t-14.5 35.5v1150h-250q-21 0 -35.5 14.5t-14.5 35.5v50q-41 0 -70.5 29t-29.5 70v500q0 42 29.5 71.5t70.5 29.5v50q0 21 14.5 35.5t35.5 14.5h250v58q0 46 28 83.5t72 50.5v408h2200zM0 1901h-200 q41 0 70.5 -29.5t29.5 -71.5v-500q0 -41 -29.5 -70t-70.5 -29h200v700zM2150 1901h-1900q-21 0 -35.5 -15t-14.5 -36v-471q0 -21 14 -40.5t33 -26.5q13 -5 38 -13t114 -29t190.5 -37.5t267 -29.5t343.5 -13t342 12.5t270 30.5t187 36t117 31l37 12q19 7 33 26.5t14 40.5v471 q0 21 -14.5 36t-35.5 15zM2400 1901v-700h200q-41 0 -70.5 29t-29.5 70v500q0 42 29.5 71.5t70.5 29.5h-200zM100 690l100 -89h400v199l-500 100v-210zM1800 800v-199h400l100 89v210zM300 501v-100h300v100h-300zM1800 501v-100h300v100h-300zM900 401v-200h600v200h-600z "/>
<glyph unicode="" d="M1100 2400h-700l166 166q6 6 11.5 11t11.5 8.5t9.5 6t10.5 4.5t10 2.5t13 1t14.5 0.5h18.5h21h614zM1500 2600h600q56 0 78 -22.5t22 -77.5v-100l-200 -200v102q0 50 -22.5 74t-77.5 24h-600zM300 2300h700q-108 -110 -155 -155q-22 -21 -32 -41t-11.5 -32t-1.5 -41v-131 h-700v130q0 38 7.5 61.5t34.5 50.5zM1845 2300q55 0 55 -53v-147l-200 -200h-700v131q0 28 1.5 40t11.5 32t32 42l155 155h645zM2200 1900l-200 -200v400l200 200v-400zM1900 1600l-200 -200h-700v400h700l200 200v-400zM800 1400h-700v400h700v-400zM2200 1400l-200 -200 v400l200 200v-400zM1900 1100l-200 -200h-700v400h700l200 200v-400zM800 900h-700v400h700v-400zM2200 1000l-200 -200v300l200 200v-300zM2400 600l-100 -100v100l-100 -100v-100l-200 -200v100l-100 -100v-100l-100 -100h-400v100h-300v-100h-400v100h-300v-100h-500v400 h1900l600 600v-400zM1900 700l-200 -200h-700v300h700l200 200v-300zM800 500h-700v300h700v-300z"/>
<glyph unicode="" d="M1200 2400q163 0 318.5 -43t287 -120.5t242.5 -188.5t188.5 -242.5t120.5 -287t43 -318.5t-43 -318.5t-120.5 -287t-188.5 -242.5t-242.5 -188.5t-287 -120.5t-318.5 -43t-318.5 43t-287 120.5t-242.5 188.5t-188.5 242.5t-120.5 287t-43 318.5t43 318.5t120.5 287 t188.5 242.5t242.5 188.5t287 120.5t318.5 43zM1200 2100q-122 0 -238.5 -32.5t-215.5 -90.5t-182 -141t-141 -182t-90.5 -215.5t-32.5 -238.5t32.5 -238.5t90.5 -215.5t141 -182t182 -141t215.5 -90.5t238.5 -32.5t238.5 32.5t215.5 90.5t182 141t141 182t90.5 215.5 t32.5 238.5t-32.5 238.5t-90.5 215.5t-141 182t-182 141t-215.5 90.5t-238.5 32.5zM1033 1433l687 312q19 8 26.5 1t-1.5 -26l-312 -687q-9 -18 -28.5 -37.5t-37.5 -28.5l-687 -312q-19 -9 -26.5 -1.5t1.5 26.5l312 687q9 18 28.5 37.5t37.5 28.5zM1283.5 1283.5 q-34.5 34.5 -83.5 34.5t-83 -35q-35 -34 -35 -83t34.5 -83.5t83.5 -34.5t83.5 34.5t34.5 83.5t-34.5 83.5z"/>
<glyph unicode="" d="M2150 1300h-1900l150 900h50q0 413 185 489q69 28 152.5 5.5t172.5 -92.5l40 39l191 -191l-141 -141l-191 191l30 30q-63 48 -119.5 65.5t-96.5 1.5q-59 -25 -91 -127.5t-32 -269.5h1450zM1300 1000v-415q175 -37 287.5 -143t112.5 -242q0 -109 -73.5 -201t-200.5 -145.5 t-276 -53.5t-276 53.5t-200.5 145.5t-73.5 201q0 136 112.5 242t287.5 143v415h-800v200h2000v-200h-900zM1300 200q0 -41 -44 -70.5t-106 -29.5t-106 29.5t-44 70.5q0 -41 44 -70.5t106 -29.5t106 29.5t44 70.5z"/>
<glyph unicode="" d="M2091 2334q114 -52 199.5 -138t133 -187.5t63.5 -217.5t-2.5 -228.5t-72.5 -221.5t-140 -194l-1031 -1031q-1 -2 -5 -6t-6.5 -6t-6 -5t-7.5 -4.5t-8 -1.5q-17 0 -40.5 21t-51 54.5t-32.5 37.5q-7 8 -7 18.5t7 17.5l1017 1016q182 183 198 389q9 128 -41 244.5t-148.5 197 t-225.5 103.5q-46 8 -91.5 8t-83.5 -5.5t-80 -21.5t-72.5 -30.5t-70.5 -43t-65 -47.5t-64.5 -55.5t-60 -57t-60.5 -61.5l-31 -31l-663 -663q-25 -25 -70.5 -67t-79.5 -74t-76.5 -75.5t-71 -84.5t-53 -87t-33.5 -96t-1 -100q9 -67 42.5 -120t80.5 -84t105.5 -45.5t117 -9 t116 31.5t102.5 71l136 136q127 127 365.5 365t284.5 285l341 341q39 39 47.5 84t-11 77.5t-51 53t-76 12.5t-82.5 -46q-19 -16 -38.5 -36t-43 -45t-36.5 -38q-619 -618 -631 -630q-4 -4 -12 -13t-15.5 -17t-17 -16.5t-18 -13.5t-18 -4.5t-16.5 7.5l-104 104q-7 7 -7 17.5 t7 18.5q49 48 237 239t348.5 352t218.5 214q70 65 153.5 92.5t168.5 11.5q65 -12 115.5 -47t80 -82t42 -104.5t6 -115t-32.5 -113.5t-69 -100l-136 -136q-121 -120 -342.5 -342t-307.5 -308q-38 -38 -111.5 -118t-124 -132.5t-124 -112.5t-140.5 -92q-88 -43 -186.5 -52 t-189.5 14.5t-171 81t-132 142.5q-64 104 -73 227.5t34.5 238t130.5 201.5l1055 1055q52 53 72.5 73t65 56.5t83.5 60.5q157 96 342.5 108t352.5 -64z"/>
<glyph unicode="" d="M1100 2400h200q41 0 70.5 -29.5t29.5 -70.5v-800q0 -41 -29.5 -70.5t-70.5 -29.5h-200q-41 0 -70.5 29.5t-29.5 70.5v800q0 41 29.5 70.5t70.5 29.5zM1729 2006q238 -139 379.5 -380t141.5 -526q0 -143 -38 -279t-105.5 -251t-164.5 -212t-212 -164.5t-251 -105.5 t-279 -38t-279 38t-251 105.5t-212 164.5t-164.5 212t-105.5 251t-38 279q0 282 139 521.5t374 379.5q39 25 69.5 32t49 -9t18.5 -57v-176q0 -29 -8 -49t-16.5 -27.5t-24 -17t-18.5 -11.5q-132 -106 -207.5 -259t-75.5 -327q0 -152 59.5 -291t160 -239.5t239.5 -160 t291 -59.5t291 59.5t239.5 160t160 239.5t59.5 291q0 174 -75 326t-205 257q-4 3 -16 11t-19 14.5t-16.5 18t-14 27.5t-4.5 36v183q0 29 11.5 44.5t31 16t41.5 -6.5t45 -21z"/>
<glyph unicode="" d="M1207 2459q196 0 364.5 -69t287 -190t185.5 -291.5t67 -367.5q0 -58 -8.5 -115t-20 -100.5t-34 -93.5t-39 -81t-48 -77.5t-47.5 -68.5t-51 -67q-32 -42 -47.5 -62.5t-42.5 -60t-40 -65t-31.5 -65t-27 -74t-15 -79t-6.5 -91.5q0 -100 -46 -166v-134q0 -12 -25 -37t-50 -44 l-25 -19v-50q0 -20 -15.5 -35t-36.5 -15h-500q-20 0 -34 15t-14 35v50q-12 8 -28.5 21t-44 40t-27.5 39v117q-64 68 -64 183q0 47 -6 91.5t-14.5 79t-26.5 74t-31.5 65.5t-40 64.5t-42.5 60t-47 62.5q-34 43 -51 66.5t-47.5 68.5t-47.5 77.5t-39 81.5t-33 93.5t-19.5 101 t-8.5 114.5q0 197 68 367.5t187 291.5t288 190t366 69l9 -1v1zM1704 1059q5 7 14 19q35 45 52 68.5t45 65t42 73t30 74t22.5 87.5t6.5 95q0 156 -55 290t-149.5 227.5t-225.5 147t-279 53.5q-157 0 -290.5 -53t-227.5 -147t-147 -227.5t-53 -290.5q0 -52 6.5 -98.5t23 -90.5 t31 -77t43 -76t46.5 -67.5t55 -72.5q33 -44 51 -67.5t48.5 -69.5t48 -79t39.5 -83.5t33.5 -96t20 -103.5t8.5 -119h514q0 61 8 119t19.5 104t33.5 95.5t39.5 83.5t47.5 79t48.5 70t50.5 67z"/>
<glyph unicode="" d="M50 2400h890q21 0 46 -10.5t40 -24.5l1339 -1339q14 -15 14 -35.5t-14 -35.5l-920 -919q-14 -15 -35 -15t-35 15l-1339 1339q-15 14 -25.5 39t-10.5 46v890q0 21 15 35.5t35 14.5zM641.5 2041.5q-58.5 58.5 -141.5 58.5t-141.5 -58.5t-58.5 -141.5t58.5 -141.5 t141.5 -58.5t141.5 58.5t58.5 141.5t-58.5 141.5z"/>
<glyph unicode="" d="M-250 2400h890q21 0 46 -10.5t39 -24.5l1339 -1339q15 -15 15 -35.5t-15 -35.5l-919 -919q-15 -15 -35.5 -15t-35.5 15l-1339 1339q-14 14 -24.5 39.5t-10.5 45.5v890q0 21 14.5 35.5t35.5 14.5zM889 2400h301q23 0 59 -5.5t47 -12.5q29 -17 65 -53l1268 -1268 q28 -28 29 -68.5t-29 -72.5l-888 -888q-15 -14 -35.5 -10.5t-35.5 18.5l-160 161l720 719q38 40 37.5 72t-37.5 69zM341.5 2041.5q-58.5 58.5 -141.5 58.5t-141 -59q-59 -58 -59 -141t59 -141q58 -59 141 -59t141.5 58.5t58.5 141.5t-58.5 141.5z"/>
<glyph unicode="" d="M1900 2425q41 0 70.5 -29.5t29.5 -70.5v-1625h275q49 0 87 -18.5t38 -56.5v-175h-1000v175q0 41 17 58t58 17h325v1625q0 41 29.5 70.5t70.5 29.5zM702 1600q77 0 147 -17.5t122.5 -46.5t99 -67t79 -80t59 -84t43.5 -80t28 -67.5t15 -46.5l5 -17v-194h-100v-800 l-104 -100h-794l-102 100v800h-100v209l8 19q131 356 411 445q85 27 183 27zM701.5 1467q-69.5 0 -132 -20t-107 -52.5t-82 -71.5t-61.5 -78.5t-40.5 -72t-23.5 -52.5l-7 -20h904q-2 8 -6.5 21t-23 51t-40.5 73t-60 77t-82 72.5t-106.5 51.5t-132 21zM2500 0h-1200l100 400 h1000z"/>
<glyph unicode="" d="M2600 1800v-1350q0 -21 -14.5 -35.5t-35.5 -14.5h-2600q-21 0 -35.5 14.5t-14.5 35.5v1350h100v-1000h100v1000h100v-600h100v600h100v-600h100v600h100v-600h100v600h100v-600h100v600h100v-1000h100v1000h100v-600h100v600h100v-600h100v600h100v-600h100v600h100v-600 h100v600h100v-1000h100v1000h100v-600h100v600h100v-600h100v600h100z"/>
<glyph unicode="" d="M570 2468q25 -7 52 -19t61.5 -29.5t49.5 -24.5l374 -170q47 -27 80 -71q32 43 79 70l360 165q17 7 68.5 32t79.5 37q68 25 131.5 14.5t114 -56.5t69.5 -113q14 -64 48 -233.5t28 -169.5h185q20 0 35 -20.5t15 -42.5v-295q0 -20 -14 -31t-36 -11h-150v-300h-800v700h-400 v-700h-800v300h-150q-22 0 -36 11t-14 31v295q0 22 15 42.5t35 20.5h160q-6 0 29 175.5t47 228.5q26 93 109 141.5t175 22.5zM1415 1941l13 -41h493q9 0 15 10t3 20l-63 290zM522 2217l-63 -289q-3 -9 2.5 -18.5t13.5 -9.5h494l14 40zM1000 0h-800v800h800v-800zM2200 0 h-800v800h800v-800z"/>
<glyph unicode="" d="M450 2400h1450q73 0 146.5 -34.5t129 -90t90 -129t34.5 -146.5v-1500l-200 -200v1600q0 300 -300 300h-1227l-200 -200h1227q124 0 212 -88t88 -212v-1400q0 -124 -88 -212t-212 -88h-1500v2025z"/>
<glyph unicode="" d="M550 2400h1400q21 0 35.5 -14.5t14.5 -35.5v-2263q0 -21 -9.5 -31.5t-21.5 -9t-22 11.5l-691 617l-709 -628q-14 -15 -30.5 -10t-16.5 25v2288q0 21 14.5 35.5t35.5 14.5z"/>
<glyph unicode="" d="M1250 2248q443 0 841 -169t700 -471l-202 -202q-262 263 -608 409.5t-731 146.5q-383 0 -728 -145.5t-607 -407.5l-202 202q302 301 699 469t838 168zM1250 1686q329 0 624.5 -125.5t519.5 -349.5l-214 -214q-182 183 -422 285t-508 102q-266 0 -505.5 -101t-420.5 -283 l-214 214q224 223 518.5 347.5t621.5 124.5zM1250 1108q212 0 401.5 -81t333.5 -225l-194 -194q-106 106 -245.5 165.5t-295.5 59.5q-154 0 -292.5 -58.5t-244.5 -163.5l-194 194q144 143 332.5 223t398.5 80zM1250 556q100 0 189 -38t156 -106l-341 -342l-345 346 q67 66 155 103t186 37z"/>
<glyph unicode="" d="M1900 2200h300q41 0 70.5 -29.5t29.5 -70.5q0 -123 -1.5 -217t-6.5 -170.5t-9.5 -129t-15.5 -98.5t-19 -73.5t-26 -59t-30.5 -49.5t-37.5 -51q-84 -109 -160 -174t-178 -106q-111 -45 -235 -69t-210 3q-52 -95 -71 -191v-115q0 -108 78 -200h122v-100h100v-300h-800v300 h100v100h122q78 92 78 200v95q-22 95 -92 206q-160 -8 -307.5 33t-273.5 134t-207 229q-29 49 -50.5 106.5t-34 128.5t-20.5 129t-11 147t-3.5 141t-0.5 151q0 41 29.5 70.5t70.5 29.5h300v200h1400v-200zM491 1269q41 -33 66.5 -51t70 -42.5t100.5 -40t130 -26.5 q-57 74 -88.5 115.5t-76.5 108t-77.5 128t-56.5 124.5q-41 108 -50 178t-9 201v36h-203q0 -88 -2 -165t6.5 -152.5t27 -143.5t59 -137t103.5 -133zM1911 1269q43 43 74 87t59.5 106.5t43.5 147.5t15 190q0 25 -1 98.5t-1 101.5h-201q0 -21 0.5 -74t0 -69.5t-2.5 -56.5 t-7 -60.5t-13.5 -55t-22.5 -66.5t-33 -69q-26 -52 -55 -99t-65 -96.5t-60 -80t-70 -87.5t-65 -81q135 11 232 49.5t172 114.5z"/>
<glyph unicode="" d="M2104 2200l344 -400l-344 -700h-1124l567 -600h36q43 90 127.5 145t187.5 55q95 0 175.5 -47t127.5 -127.5t47 -175.5t-47 -175.5t-127.5 -127.5t-175.5 -47q-132 0 -229.5 86t-115.5 214h-99l-378 405l-264 -204q36 -74 36 -150q0 -95 -47 -175.5t-127.5 -127 t-175.5 -46.5q-94 0 -174.5 46.5t-127.5 127t-47 175.5t47 175.5t127.5 127t174.5 46.5q96 0 179 -51l261 201l-234 250h-256l-107 433l-318 84q-32 10 -51.5 35.5t-19.5 56.5q0 15 5 30q10 30 32.5 46t52.5 16q18 0 36 -6l370 -95l55 -100h832l-187 800h400zM498 503 q-63 0 -107.5 -44.5t-44.5 -107.5t44.5 -108t107.5 -45q64 0 108.5 45t44.5 108t-44.5 107.5t-108.5 44.5zM1898 500q-62 0 -106 -44t-44 -106t44 -106t106 -44t106 44t44 106t-44 106t-106 44z"/>
<glyph unicode="" d="M1200 2350q156 0 309 -45t284.5 -125t244 -192.5t192.5 -244t125 -284.5t45 -309v-600q0 -21 -14.5 -35.5t-35.5 -14.5h-100q-21 0 -35.5 14.5t-14.5 35.5v600q0 128 -38 248t-105 218t-161 180t-204 137.5t-236 86t-256 30.5t-256 -30.5t-236 -86t-204 -137.5t-161 -180 t-105 -218t-38 -248v-600q0 -21 -14.5 -35.5t-35.5 -14.5h-100q-21 0 -35.5 14.5t-14.5 35.5v600q0 156 45 309t125 284.5t192.5 244t244 192.5t284.5 125t309 45zM334 900h253q21 0 35.5 -15t14.5 -36q6 -17 14.5 -48.5t22 -135.5t13.5 -215t-12.5 -211t-24.5 -145l-13 -44 q0 -21 -14.5 -35.5t-35.5 -14.5h-253q-34 0 -34 50v798q0 52 34 52zM1813 900h253q34 0 34 -52v-798q0 -50 -34 -50h-253q-21 0 -35.5 14.5t-14.5 35.5q-6 17 -14.5 49t-22 136t-13.5 215t12.5 211t24.5 144l13 44q0 21 14.5 36t35.5 15z"/>
<glyph unicode="" d="M1200 2350q156 0 309 -45t284.5 -125t244 -192.5t192.5 -244t125 -284.5t45 -309l-2 -870q-2 -8 -6 -22t-18.5 -47.5t-35 -67t-58.5 -78.5t-85 -85.5t-118 -83t-154.5 -76.5t-197.5 -62t-244 -42q-24 -53 -73 -84.5t-108 -31.5h-100q-83 0 -141.5 58.5t-58.5 141.5 t58.5 141.5t141.5 58.5h100q50 0 93 -23t71 -63q123 14 228.5 41t177 58.5t130.5 71t93 72.5t59 68.5t34 54t14 33.5v837q0 128 -38 248t-105 218t-161 180t-204 137.5t-236 86t-256 30.5t-256 -30.5t-236 -86t-204 -137.5t-161 -180t-105 -218t-38 -248v-600 q0 -21 -14.5 -35.5t-35.5 -14.5h-100q-21 0 -35.5 14.5t-14.5 35.5v600q0 156 45 309t125 284.5t192.5 244t244 192.5t284.5 125t309 45zM334 900h253q21 0 35.5 -15t14.5 -36q6 -17 14.5 -48.5t22 -135.5t13.5 -215t-12.5 -211t-24.5 -145l-13 -44q0 -21 -14.5 -35.5 t-35.5 -14.5h-253q-34 0 -34 50v798q0 52 34 52zM1813 900h253q34 0 34 -52v-457q-67 -81 -151.5 -140t-208.5 -93q-27 214 -27 292q0 111 12.5 211t24.5 144l13 44q0 21 14.5 36t35.5 15z"/>
<glyph unicode="" d="M1250 2395q40 0 75 -20t55 -55l1238 -2095q20 -35 20 -75.5t-20 -75t-55 -54.5t-75 -20h-2476q-40 0 -75 20t-55 55t-20 74.5t20 75.5l1238 2095q20 35 55 55t75 20zM271 300h1958l-979 1680zM1150 1500h200q21 0 35.5 -14.5t14.5 -35.5v-188q0 -37 -7 -74l-68 -345 q-3 -16 -16.5 -29.5t-28.5 -13.5h-59q-14 0 -27.5 13.5t-16.5 29.5l-70 342q-7 36 -7 77v188q0 21 14.5 35.5t35.5 14.5zM1137 700h225q16 0 27 -11t11 -27v-225q0 -15 -11 -26t-27 -11h-225q-15 0 -26 11t-11 26v225q0 16 11 27t26 11z"/>
<glyph unicode="" d="M2050 2400h300q21 0 35.5 -14.5t14.5 -35.5v-2350h-400v2350q0 21 14.5 35.5t35.5 14.5zM1550 1800h300q21 0 35.5 -14.5t14.5 -35.5v-1750h-400v1750q0 21 14.5 35.5t35.5 14.5zM1050 1300h300q21 0 35.5 -14.5t14.5 -35.5v-1250h-400v1250q0 21 14.5 35.5t35.5 14.5z M550 1000h300q21 0 35.5 -14.5t14.5 -35.5v-950h-400v950q0 21 14.5 35.5t35.5 14.5zM50 700h300q21 0 35.5 -14.5t14.5 -35.5v-650h-400v650q0 21 14.5 35.5t35.5 14.5z"/>
<glyph unicode="" d="M606 1900h1644q21 0 35.5 -14.5t14.5 -35.5v-850h251q21 0 26.5 -11t-6.5 -28l-390 -519q-12 -16 -29.5 -16.5t-30.5 15.5l-390 520q-12 16 -6.5 27.5t26.5 11.5h249v600h-1163zM281 1883l390 -532q13 -16 6.5 -33.5t-26.5 -17.5h-251v-600h1172l231 -300h-1653 q-21 0 -35.5 14.5t-14.5 35.5v850h-249q-20 0 -26 17.5t6 34.5l390 526q13 17 30 19t30 -14z"/>
<glyph unicode="" d="M327 908l20 3q-46 135 -48.5 275.5t40.5 280.5t130 260q103 143 251 235t310 122.5t333.5 -1.5t319.5 -127l-145 -200q-12 -17 -6 -28.5t27 -11.5l650 12q21 0 31 14.5t4 33.5l-193 621q-6 20 -19 22t-25 -15l-148 -204l-6 4q-132 86 -280.5 135t-296.5 58.5t-297 -18 t-283.5 -89t-256 -160.5t-213.5 -227q-81 -111 -133.5 -235.5t-74.5 -252t-17.5 -257t36.5 -255.5zM2051 1484l309 6q31 -125 35.5 -253.5t-18 -255.5t-75 -250.5t-132.5 -233.5q-92 -128 -213.5 -227t-256 -160.5t-283.5 -89t-297 -18t-296.5 58.5t-280.5 135l-6 4 l-148 -204q-12 -17 -25 -15t-19 22l-193 621q-6 19 4 33.5t31 14.5l650 12q21 0 27 -11.5t-6 -28.5l-145 -200q148 -95 319.5 -127t333 -1.5t310 122.5t251.5 235q87 119 130 258.5t40.5 279.5t-46.5 273z"/>
<glyph unicode="" d="M882 2357q216 58 425.5 38t398.5 -108.5t337 -234.5l-271 -159q-167 138 -377.5 185t-433.5 -10q-136 -38 -259 -120q143 -117 173 -142q23 -19 23 -36.5t-27 -26.5q-30 -8 -279 -70t-298 -73q-51 -13 -66.5 -5t-13.5 55q21 592 23 609q3 33 18 40t45 -17l164 -136 q190 148 418 211zM2034 1846l561 -316q21 -12 21.5 -29.5t-16.5 -24.5l-215 -91q32 -204 -5.5 -404t-136.5 -375q-117 -204 -303.5 -351.5t-422.5 -211.5q-3 -1 -10 -2.5t-10 -2.5l1 314q154 53 278.5 156.5t205.5 246.5q134 235 114 507q-179 -78 -216 -92q-27 -11 -36.5 0 t-2.5 42l145 616q9 40 48 18zM43 1513l271 -155q-36 -201 18 -396q52 -190 175.5 -337t294.5 -231q21 151 31 207q11 63 61 16q24 -23 212.5 -211t215.5 -217q26 -30 24.5 -43t-27.5 -29q-29 -17 -273 -151t-274 -149q-33 -18 -46 -13t-9 38l37 245q-257 103 -446 310.5 t-265 484.5q-87 315 0 631z"/>
<glyph unicode="" d="M2042 2170l522 -390q17 -13 16.5 -30.5t-16.5 -29.5l-522 -390q-16 -13 -29 -7t-13 27v250h-237l-1200 -1100h-708q-21 0 -38 14.5t-17 35.5v200q0 20 17 35t38 15h591l1200 1100h354v250q0 20 13 26t29 -6zM994 1505l-222 -203l-326 298h-591q-21 0 -38 14.5t-17 35.5 v200q0 20 17 35t38 15h708zM1763 800h237v250q0 20 13 26t29 -6l523 -390q16 -13 16 -30.5t-16 -29.5l-523 -390q-16 -13 -29 -7t-13 27v250h-354l-430 395l222 203z"/>
<glyph unicode="" d="M388 2458l399 -518q12 -17 6.5 -28.5t-26.5 -11.5h-262q0 -96 -9.5 -176t-30 -149.5t-35.5 -108t-43 -102.5q-24 -54 -36 -85t-27.5 -84t-22 -112t-6.5 -133t6.5 -133.5t22 -112t27.5 -83.5t36 -85q28 -64 43 -102.5t35.5 -108t30 -149.5t9.5 -176h-300q0 74 -6.5 133 t-22 112t-27.5 83.5t-36 85.5q-28 64 -43 102.5t-35.5 108t-30 149.5t-9.5 176t9.5 176t30 149.5t35.5 108t43 102.5q24 55 36 85.5t27.5 83.5t22 112t6.5 133h-236q-21 0 -27 12t6 28l380 517q12 17 29.5 17t30.5 -16zM1388 2458l399 -518q12 -17 6.5 -28.5t-26.5 -11.5 h-262q0 -96 -9.5 -176t-30 -149.5t-35.5 -108t-43 -102.5q-24 -54 -36 -85t-27.5 -84t-22 -112t-6.5 -133t6.5 -133.5t22 -112t27.5 -83.5t36 -85q28 -64 43 -102.5t35.5 -108t30 -149.5t9.5 -176h-300q0 74 -6.5 133t-22 112t-27.5 83.5t-36 85.5q-28 64 -43 102.5 t-35.5 108t-30 149.5t-9.5 176t9.5 176t30 149.5t35.5 108t43 102.5q24 55 36 85.5t27.5 83.5t22 112t6.5 133h-236q-21 0 -27 12t6 28l380 517q12 17 29.5 17t30.5 -16zM2388 2458l399 -518q12 -17 6.5 -28.5t-26.5 -11.5h-262q0 -96 -9.5 -176t-30 -149.5t-35.5 -108 t-43 -102.5q-24 -54 -36 -85t-27.5 -84t-22 -112t-6.5 -133t6.5 -133.5t22 -112t27.5 -83.5t36 -85q28 -64 43 -102.5t35.5 -108t30 -149.5t9.5 -176h-300q0 74 -6.5 133t-22 112t-27.5 83.5t-36 85.5q-28 64 -43 102.5t-35.5 108t-30 149.5t-9.5 176t9.5 176t30 149.5 t35.5 108t43 102.5q24 55 36 85.5t27.5 83.5t22 112t6.5 133h-236q-21 0 -27 12t6 28l380 517q12 17 29.5 17t30.5 -16z"/>
<glyph unicode="" d="M1873 2200l148 204q12 17 25 15t19 -22l193 -621q6 -19 -4 -33.5t-31 -14.5l-650 -12q-21 0 -27 11.5t6 28.5l145 200q-148 95 -319.5 127t-333.5 1.5t-310 -122.5t-251 -235q-170 -234 -169 -527q0 -175 68 -342.5t195 -294.5q127 -126 290.5 -193.5t336.5 -69.5 q90 -1 176.5 14.5t175.5 49.5t174 95.5t158 145.5q15 17 55 71.5t58 81.5q18 26 54.5 27.5t70.5 -21.5l83 -56q34 -23 46 -57.5t-5 -60.5q-18 -26 -67.5 -92.5t-69.5 -90.5q-85 -102 -198.5 -182t-234.5 -128.5t-242.5 -73.5t-233.5 -24q-233 2 -450.5 91t-388.5 259 q-80 80 -142 172t-101 178.5t-64 178t-34.5 169t-9.5 153.5q0 183 56.5 365.5t169.5 337.5q92 128 213.5 227t256 160.5t283.5 89t297 18t296.5 -58.5t280.5 -135z"/>
<glyph unicode="" d="M-100 2400h2600q41 0 70.5 -29.5t29.5 -70.5v-1700q0 -41 -29.5 -70.5t-70.5 -29.5h-1100v-100q0 -41 11 -74t28.5 -53.5t39 -35.5t43 -21.5t39 -10.5t28.5 -5h11h365q14 0 24.5 -10.5t10.5 -25.5v-164h-1600v164q0 15 10.5 25.5t25.5 10.5h369q4 0 11 0.5t27 4.5 t38.5 10.5t41 21.5t39 35.5t27.5 53.5t11 74v100h-1100q-41 0 -70.5 29.5t-29.5 70.5v1700q0 41 29.5 70.5t70.5 29.5zM0 2200v-1400h2400v1400h-2400zM2300 700v-100h100v100h-100z"/>
<glyph unicode="" d="M450 2400h1450q98 0 191 -58t151 -151t58 -191v-1500l-200 -200v1600q0 300 -300 300h-1227l-200 -200h1227q124 0 212 -88t88 -212v-1400q0 -124 -88 -212t-212 -88h-1500v2025zM1640 1312l-156 154q-7 6 -17 6t-17 -7l-499 -499q-7 -7 -17 -7t-17 7l-186 186 q-7 7 -17 7t-17 -7l-154 -155q-7 -7 -7 -17t7 -16l374 -375q7 -7 16.5 -7t16.5 7l690 689q7 7 7 17t-7 17z"/>
<glyph unicode="" d="M450 2400h1450q73 0 146.5 -34.5t129 -90t90 -129t34.5 -146.5v-1500l-200 -200v1600q0 300 -300 300h-1227l-200 -200h1227q124 0 212 -88t88 -212v-1400q0 -124 -88 -212t-212 -88h-1500v2025zM1000 1559q-94 0 -147 -56t-53 -140v-199q0 -36 32.5 -80t67.5 -53v-90 q-46 -20 -194.5 -72t-161.5 -60q-26 -15 -35 -32.5t-9 -52.5v-102q0 -9 6.5 -15.5t15.5 -6.5h956q9 0 15.5 6.5t6.5 15.5v102q0 35 -9 52.5t-35 32.5q-13 8 -162 60t-194 72v90q35 9 67.5 53t32.5 80v199q0 84 -53 140t-147 56z"/>
<glyph unicode="" d="M1500 2500h500l200 -200h-2000l200 200h500l100 100h400zM2200 200h100v-100h100v-100h-1000v300h-400v-300h-1000v100h100v100h100v2000h2000v-2000zM500 1900v-200h400v200h-400zM1000 1900v-200h400v200h-400zM1500 1900v-200h400v200h-400zM500 1500v-200h400v200 h-400zM1000 1500v-200h400v200h-400zM1500 1500v-200h400v200h-400zM500 1100v-200h400v200h-400zM1000 1100v-200h400v200h-400zM1500 1100v-200h400v200h-400zM500 700v-200h400v200h-400zM1000 700v-200h400v200h-400zM1500 700v-200h400v200h-400z"/>
<glyph unicode="" d="M2020 2386q97 0 183 -86l71 -71q36 -37 57 -75t27.5 -72.5t0.5 -71t-20 -67.5t-37 -64.5t-46 -60t-53 -56.5l-319 -319l-15 -12l155 -156q24 -24 24.5 -57.5t-22.5 -56.5l-142 -142q-23 -23 -55 -23q-35 0 -60 25l-111 111l-898 -898q-44 -43 -107.5 -68.5t-125.5 -25.5 q-28 0 -55 5q-7 0 -18.5 -4t-15.5 -8l-36 -36q-71 -71 -171 -71q-97 0 -164 67q-68 68 -67 166.5t72 168.5l35 35q4 5 8.5 16.5t4.5 16.5q-16 71 9 153.5t80 136.5l898 898l-112 111q-24 24 -24.5 58t22.5 57l142 142q23 22 56 22q34 0 59 -24l155 -156q11 15 13 16l318 319 q157 157 284 157zM321 700h707l531 531l-353 354z"/>
<glyph unicode="" d="M1200 2425q166 0 325 -44t293 -123t247.5 -192.5t192.5 -247.5t123 -293t44 -325t-44 -325t-123 -293t-192.5 -247.5t-247.5 -192.5t-293 -123t-325 -44t-325 44t-293 123t-247.5 192.5t-192.5 247.5t-123 293t-44 325t44 325t123 293t192.5 247.5t247.5 192.5t293 123 t325 44zM1100 226v1948q-185 -21 -346.5 -105.5t-277 -213t-181.5 -299t-66 -356.5t66 -356.5t181.5 -299t277 -213.5t346.5 -105z"/>
<glyph unicode="" d="M1950 2500q19 -63 51 -125.5t66.5 -114t73 -104t72.5 -103t61.5 -102t43.5 -110.5t16 -119q0 -79 -34.5 -146.5t-90.5 -111.5t-123.5 -69t-135 -25t-135 24.5t-123.5 68t-91 111t-35 145.5q0 61 16 120t43.5 110.5t61 102.5t72 103.5t73 104.5t67 115t51.5 125zM857 2353 q38 -125 101.5 -250.5t133 -228.5t146 -208t144.5 -206t123.5 -204t87.5 -221t32 -239q0 -106 -32 -203t-88 -173t-130.5 -138t-160 -103t-177 -63t-180.5 -22t-180 21.5t-176.5 62t-160.5 102t-130.5 137t-88 172t-32.5 202.5q0 121 32 239t87 221.5t122 205t143.5 207 t146 209t134 229.5t103.5 251zM1815 1973q7 24 -14 30q-25 7 -45 -23q-2 -3 -4 -7q-34 -57 -58.5 -127t-24.5 -127q1 -65 52 -116t129 -55q38 3 35.5 20.5t-35.5 32.5q-30 14 -49.5 50t-19.5 79q0 60 9 128t25 115zM586 1299q13 41 -19 56q-34 17 -73 -14q-20 -16 -34 -42 q-67 -114 -116.5 -254t-48.5 -254q0 -62 26.5 -122t72.5 -107.5t115 -78t148 -34.5q50 2 65 20.5t-4 42.5t-61 42q-61 28 -99.5 100.5t-38.5 157.5q0 122 17.5 257t49.5 230z"/>
<glyph unicode="" d="M2471 2329l-371 -370v-1259h400v-400h-2200v2100h400v-300h1259l370 371zM200 1700h-300v400h300v-400zM700 1700v-859l859 859h-859zM841 700h859v859zM2100 -100h-400v300h400v-300z"/>
<glyph unicode="" d="M2400 2000h-100v-1600h100v-400h-400v100h-1600v-100h-400v400h100v1600h-100v400h400v-100h1600v100h400v-400zM100 2300v-200h200v200h-200zM2100 2300v-200h200v200h-200zM400 2100v-100h-100v-1600h100v-100h1600v100h100v1600h-100v100h-1600zM100 300v-200h200v200 h-200zM2100 300v-200h200v200h-200z"/>
<glyph unicode="" d="M1400 2400v-119q221 -41 407 -164.5t309.5 -309.5t164.5 -407h119v-400h-119q-41 -221 -164.5 -407t-309.5 -309.5t-407 -164.5v-119h-400v119q-221 41 -407 164.5t-309.5 309.5t-164.5 407h-119v400h119q41 221 164.5 407t309.5 309.5t407 164.5v119h400zM1100 2300 v-200h200v200h-200zM1400 2000h-400v77q-252 -58 -435.5 -241.5t-241.5 -435.5h77v-400h-77q58 -252 241.5 -435.5t435.5 -241.5v77h400v-77q252 58 435.5 241.5t241.5 435.5h-77v400h77q-58 252 -241.5 435.5t-435.5 241.5v-77zM100 1300v-200h200v200h-200zM2100 1300 v-200h200v200h-200zM1100 300v-200h200v200h-200z"/>
<glyph unicode="" d="M1400 2274l798 -574h302v-400h-150l-294 -900h44v-400h-400v100h-1000v-100h-400v400h44l-295 900h-149v400h305l795 574v226h400v-226zM1100 2400v-200h200v200h-200zM1100 2100l-800 -578v-222h-41l295 -900h146v-100h1000v100h146l294 900h-40v224l-800 576h-200z M0 1600v-200h200v200h-200zM2200 1600v-200h200v200h-200zM400 300v-200h200v200h-200zM1800 300v-200h200v200h-200z"/>
<glyph unicode="" d="M2400 2000h-259l-1741 -1741v-259h-400v400h259l1741 1741v259h400v-400zM2100 2300v-200h200v200h-200zM100 300v-200h200v200h-200z"/>
<glyph unicode="" d="M2400 2000h-400v61q-312 -60 -591 -210t-494.5 -365.5t-365.5 -494.5t-210 -591h61v-400h-400v400h136q41 236 130 457t215.5 412.5t292 357t357 292t412.5 215.5t457 130v136h400v-400zM2100 2300v-200h200v200h-200zM100 300v-200h200v200h-200z"/>
<glyph unicode="" d="M2400 2000h-100v-600h100v-400h-100v-600h100v-400h-400v100h-600v-100h-400v100h-600v-100h-400v400h100v600h-100v400h100v600h-100v400h400v-100h600v100h400v-100h600v100h400v-400zM100 2300v-200h200v200h-200zM1100 2300v-200h200v200h-200zM2100 2300v-200h200 v200h-200zM1400 2100v-100h-400v100h-600v-100h-100v-600h100v-400h-100v-600h100v-100h600v100h400v-100h600v100h100v600h-100v400h100v600h-100v100h-600zM100 1300v-200h200v200h-200zM2100 1300v-200h200v200h-200zM100 300v-200h200v200h-200zM1100 300v-200h200v200 h-200zM2100 300v-200h200v200h-200z"/>
<glyph unicode="" d="M1205 2400l738 -1914q5 -11 13.5 -29t38 -65t63.5 -83t69.5 -56.5t54.5 -23.5l18 -2v-127h-800v127q42 0 75 16t52.5 43t30 60t9 68t-13.5 66l-158 426h-750q-110 -279 -176 -450q-21 -52 -15 -90t27 -64.5t57.5 -43t76.5 -24t85 -7.5v-127h-700v127q12 5 31.5 14 t62.5 35t66.5 49.5t48.5 59.5t38 60l13 25l766 1930h179zM2614 1504l86 -46v-58h-400v58l110 50l-76 200l-353 -1l-91 -201l110 -46v-60h-300v60l93 46l376 894h81zM2018 1800h297l-101 280l-40 121zM696 1100h652l-222 607l-88 269z"/>
<glyph unicode="" d="M1803 2400l2 -114q-66 -15 -103.5 -25t-72 -25t-51 -29t-32 -40t-22.5 -53.5t-15 -74.5l-284 -1682q-8 -47 4 -90t38 -73.5t60.5 -51.5t72.5 -28v-114h-900v114q146 13 229.5 77.5t101.5 165.5l319 1682q2 12 6 33q25 105 1.5 141t-157.5 73v114h803z"/>
<glyph unicode="" d="M200 2400h1096q91 0 183.5 -28t176.5 -83t150 -130t105 -177.5t39 -215.5q0 -63 -15.5 -120.5t-41 -102t-59 -84.5t-70.5 -69t-74 -53t-70.5 -40t-59 -27t-41.5 -15l-15 -5q7 -2 20 -5.5t52 -17.5t77 -31t89.5 -47.5t96 -65t89.5 -84t77 -105t52 -129t20 -153.5 q0 -90 -27 -169.5t-74 -140.5t-110.5 -111.5t-134.5 -85.5t-148 -59t-150 -35t-141 -11h-1092v178q82 13 141 64t59 131v1655q0 47 -0.5 67t-7 48t-17.5 39t-34.5 27t-56 26t-84.5 22v143zM1196 2100h-296v-700h296q58 0 103.5 20t74.5 53t48 79t26.5 94.5t7.5 103.5 t-7.5 103.5t-26.5 94.5t-48 79t-74.5 53t-103.5 20zM1196 1100h-296v-800h299q169 0 266.5 96t97.5 269q0 91 -22 168t-66 137.5t-115.5 95t-163.5 34.5z"/>
<glyph unicode="" d="M2200 1900h-100q0 146 -81.5 223t-218.5 77h-400v-1600q0 -18 8 -33t25 -25t35 -17.5t45 -12t47.5 -7t51 -4t46 -1.5h42.5v-100h-1000v100h42.5t46 1.5t51 4t47.5 7t45 12t35 17.5t25 25t8 33v1600h-400q-137 0 -218.5 -77t-81.5 -223h-100v500h2000v-500zM2200 0h-2000 v200h2000v-200z"/>
<glyph unicode="" d="M2200 1900h-100q0 146 -81.5 223t-218.5 77h-400v-800h800v-200h-800v-800q0 -18 8 -33t25 -25t35 -17.5t45 -12t47.5 -7t51 -4t46 -1.5h42.5v-100h-1000v100h42.5t46 1.5t51 4t47.5 7t45 12t35 17.5t25 25t8 33v800h-800v200h800v800h-400q-137 0 -218.5 -77t-81.5 -223 h-100v500h2000v-500z"/>
<glyph unicode="" d="M400 2100h-200v-1600h200l-250 -333l-250 333h200v1600h-200l250 333zM2500 1900h-100q0 146 -81.5 223t-218.5 77h-400v-1800q0 -18 8 -33t25 -25t35 -17.5t45 -12t47.5 -7t51 -4t46 -1.5h42.5v-100h-1000v100h42.5t46 1.5t51 4t47.5 7t45 12t35 17.5t25 25t8 33v1800 h-400q-137 0 -218.5 -77t-81.5 -223h-100v500h2000v-500z"/>
<glyph unicode="" d="M2200 1900h-100q0 146 -81.5 223t-218.5 77h-400v-1500q0 -24 14 -42t42.5 -28.5t55 -17t67.5 -9t63 -3t58 -0.5v-100h-1000v100q36 0 58 0.5t63 3t67.5 9t55 17t42.5 28.5t14 42v1500h-400q-137 0 -218.5 -77t-81.5 -223h-100v500h2000v-500zM2233 250l-333 -250v200 h-1400v-200l-333 250l333 250v-200h1400v200z"/>
<glyph unicode="" d="M2500 2200h-100v-2000h100v-300h-300v100h-2000v-100h-300v300h100v2000h-100v300h300v-100h2000v100h300v-300zM0 2400v-100h100v100h-100zM2300 2400v-100h100v100h-100zM200 2300v-100h-100v-2000h100v-100h2000v100h100v2000h-100v100h-2000zM2200 1600h-100 q0 146 -81.5 223t-218.5 77h-400v-1400q0 -18 8 -33t25 -25t35 -17.5t45 -12t47.5 -7t51 -4t46 -1.5h42.5v-100h-1000v100h42.5t46 1.5t51 4t47.5 7t45 12t35 17.5t25 25t8 33v1400h-400q-137 0 -218.5 -77t-81.5 -223h-100v500h2000v-500zM0 100v-100h100v100h-100z M2300 100v-100h100v100h-100z"/>
<glyph unicode="" d="M900 100h-200v2200h200v-2200zM1050 2100h600q21 0 35.5 -14.5t14.5 -35.5v-200q0 -21 -14.5 -35.5t-35.5 -14.5h-600q-21 0 -35.5 14.5t-14.5 35.5v200q0 21 14.5 35.5t35.5 14.5zM1050 1600h1100q21 0 35.5 -14.5t14.5 -35.5v-200q0 -21 -14.5 -35.5t-35.5 -14.5h-1100 q-21 0 -35.5 14.5t-14.5 35.5v200q0 21 14.5 35.5t35.5 14.5zM633 1150l-333 -250v200h-300v100h300v200zM1050 1100h800q21 0 35.5 -14.5t14.5 -35.5v-200q0 -21 -14.5 -35.5t-35.5 -14.5h-800q-21 0 -35.5 14.5t-14.5 35.5v200q0 21 14.5 35.5t35.5 14.5zM1050 600h1300 q21 0 35.5 -14.5t14.5 -35.5v-200q0 -21 -14.5 -35.5t-35.5 -14.5h-1300q-21 0 -35.5 14.5t-14.5 35.5v200q0 21 14.5 35.5t35.5 14.5z"/>
<glyph unicode="" d="M1700 100h-200v2200h200v-2200zM50 2100h600q21 0 35.5 -14.5t14.5 -35.5v-200q0 -21 -14.5 -35.5t-35.5 -14.5h-600q-21 0 -35.5 14.5t-14.5 35.5v200q0 21 14.5 35.5t35.5 14.5zM50 1600h1100q21 0 35.5 -14.5t14.5 -35.5v-200q0 -21 -14.5 -35.5t-35.5 -14.5h-1100 q-21 0 -35.5 14.5t-14.5 35.5v200q0 21 14.5 35.5t35.5 14.5zM2100 1200h300v-100h-300v-200l-333 250l333 250v-200zM50 1100h800q21 0 35.5 -14.5t14.5 -35.5v-200q0 -21 -14.5 -35.5t-35.5 -14.5h-800q-21 0 -35.5 14.5t-14.5 35.5v200q0 21 14.5 35.5t35.5 14.5zM50 600 h1300q21 0 35.5 -14.5t14.5 -35.5v-200q0 -21 -14.5 -35.5t-35.5 -14.5h-1300q-21 0 -35.5 14.5t-14.5 35.5v200q0 21 14.5 35.5t35.5 14.5z"/>
<glyph unicode="" d="M50 2200h1299q20 0 35 -14.5t15 -35.5v-200q0 -21 -15 -35.5t-35 -14.5h-1299q-21 0 -35.5 14.5t-14.5 35.5v200q0 21 14.5 35.5t35.5 14.5zM50 1600h2099q20 0 35 -14.5t15 -35.5v-200q0 -21 -15 -35.5t-35 -14.5h-2099q-21 0 -35.5 14.5t-14.5 35.5v200q0 21 14.5 35.5 t35.5 14.5zM50 1000h1699q20 0 35 -14.5t15 -35.5v-200q0 -21 -15 -35.5t-35 -14.5h-1699q-21 0 -35.5 14.5t-14.5 35.5v200q0 21 14.5 35.5t35.5 14.5zM50 400h2300q21 0 35.5 -14.5t14.5 -35.5v-200q0 -21 -14.5 -35.5t-35.5 -14.5h-2300q-21 0 -35.5 14.5t-14.5 35.5v200 q0 21 14.5 35.5t35.5 14.5z"/>
<glyph unicode="" d="M450 2200h1500q21 0 35.5 -14.5t14.5 -35.5v-200q0 -21 -14.5 -35.5t-35.5 -14.5h-1500q-21 0 -35.5 14.5t-14.5 35.5v200q0 21 14.5 35.5t35.5 14.5zM50 1600h2300q21 0 35.5 -14.5t14.5 -35.5v-200q0 -21 -14.5 -35.5t-35.5 -14.5h-2300q-21 0 -35.5 14.5t-14.5 35.5 v200q0 21 14.5 35.5t35.5 14.5zM450 1000h1500q21 0 35.5 -14.5t14.5 -35.5v-200q0 -21 -14.5 -35.5t-35.5 -14.5h-1500q-21 0 -35.5 14.5t-14.5 35.5v200q0 21 14.5 35.5t35.5 14.5zM50 400h2300q21 0 35.5 -14.5t14.5 -35.5v-200q0 -21 -14.5 -35.5t-35.5 -14.5h-2300 q-21 0 -35.5 14.5t-14.5 35.5v200q0 21 14.5 35.5t35.5 14.5z"/>
<glyph unicode="" d="M1051 2200h1299q21 0 35.5 -14.5t14.5 -35.5v-200q0 -21 -14.5 -35.5t-35.5 -14.5h-1299q-20 0 -35 14.5t-15 35.5v200q0 21 15 35.5t35 14.5zM251 1600h2099q21 0 35.5 -14.5t14.5 -35.5v-200q0 -21 -14.5 -35.5t-35.5 -14.5h-2099q-20 0 -35 14.5t-15 35.5v200 q0 21 15 35.5t35 14.5zM651 1000h1699q21 0 35.5 -14.5t14.5 -35.5v-200q0 -21 -14.5 -35.5t-35.5 -14.5h-1699q-20 0 -35 14.5t-15 35.5v200q0 21 15 35.5t35 14.5zM50 400h2300q21 0 35.5 -14.5t14.5 -35.5v-200q0 -21 -14.5 -35.5t-35.5 -14.5h-2300q-21 0 -35.5 14.5 t-14.5 35.5v200q0 21 14.5 35.5t35.5 14.5z"/>
<glyph unicode="" d="M50 2200h2300q21 0 35.5 -14.5t14.5 -35.5v-200q0 -21 -14.5 -35.5t-35.5 -14.5h-2300q-21 0 -35.5 14.5t-14.5 35.5v200q0 21 14.5 35.5t35.5 14.5zM50 1600h2300q21 0 35.5 -14.5t14.5 -35.5v-200q0 -21 -14.5 -35.5t-35.5 -14.5h-2300q-21 0 -35.5 14.5t-14.5 35.5 v200q0 21 14.5 35.5t35.5 14.5zM50 1000h2300q21 0 35.5 -14.5t14.5 -35.5v-200q0 -21 -14.5 -35.5t-35.5 -14.5h-2300q-21 0 -35.5 14.5t-14.5 35.5v200q0 21 14.5 35.5t35.5 14.5zM50 400h2300q21 0 35.5 -14.5t14.5 -35.5v-200q0 -21 -14.5 -35.5t-35.5 -14.5h-2300 q-21 0 -35.5 14.5t-14.5 35.5v200q0 21 14.5 35.5t35.5 14.5z"/>
<glyph unicode="" d="M50 2200h200q21 0 35.5 -14.5t14.5 -35.5v-200q0 -21 -14.5 -35.5t-35.5 -14.5h-200q-21 0 -35.5 14.5t-14.5 35.5v200q0 21 14.5 35.5t35.5 14.5zM550 2200h1800q21 0 35.5 -14.5t14.5 -35.5v-200q0 -21 -14.5 -35.5t-35.5 -14.5h-1800q-21 0 -35.5 14.5t-14.5 35.5v200 q0 21 14.5 35.5t35.5 14.5zM50 1600h200q21 0 35.5 -14.5t14.5 -35.5v-200q0 -21 -14.5 -35.5t-35.5 -14.5h-200q-21 0 -35.5 14.5t-14.5 35.5v200q0 21 14.5 35.5t35.5 14.5zM550 1600h1800q21 0 35.5 -14.5t14.5 -35.5v-200q0 -21 -14.5 -35.5t-35.5 -14.5h-1800 q-21 0 -35.5 14.5t-14.5 35.5v200q0 21 14.5 35.5t35.5 14.5zM50 1000h200q21 0 35.5 -14.5t14.5 -35.5v-200q0 -21 -14.5 -35.5t-35.5 -14.5h-200q-21 0 -35.5 14.5t-14.5 35.5v200q0 21 14.5 35.5t35.5 14.5zM550 1000h1800q21 0 35.5 -14.5t14.5 -35.5v-200 q0 -21 -14.5 -35.5t-35.5 -14.5h-1800q-21 0 -35.5 14.5t-14.5 35.5v200q0 21 14.5 35.5t35.5 14.5zM50 400h200q21 0 35.5 -14.5t14.5 -35.5v-200q0 -21 -14.5 -35.5t-35.5 -14.5h-200q-21 0 -35.5 14.5t-14.5 35.5v200q0 21 14.5 35.5t35.5 14.5zM550 400h1800 q21 0 35.5 -14.5t14.5 -35.5v-200q0 -21 -14.5 -35.5t-35.5 -14.5h-1800q-21 0 -35.5 14.5t-14.5 35.5v200q0 21 14.5 35.5t35.5 14.5z"/>
<glyph unicode="" d="M1500 1500h-100q0 146 -81.5 223t-218.5 77h-100v-1200q0 -18 8 -33t25 -25t35 -17.5t45 -12t47.5 -7t51 -4t46 -1.5h42.5v-100h-900v100h42.5t46 1.5t51 4t47.5 7t45 12t35 17.5t25 25t8 33v1200h-100q-137 0 -218.5 -77t-81.5 -223h-100v500h1300v-500zM2400 1000h-800 v200h800v-200z"/>
<glyph unicode="" d="M2000 1800h-100q0 146 -81.5 223t-218.5 77h-400v-1800q0 -18 8 -33t25 -25t35 -17.5t45 -12t47.5 -7t51 -4t46 -1.5h42.5v-100h-1000v100h42.5t46 1.5t51 4t47.5 7t45 12t35 17.5t25 25t8 33v1800h-400q-137 0 -218.5 -77t-81.5 -223h-100v500h2000v-500zM2100 1200h300 v-200h-300v-300h-200v300h-300v200h300v300h200v-300z"/>
<glyph unicode="" d="M800 1533l-789 -421l789 -445v-266l-1100 636v150l1100 611v-265zM2700 1187v-150l-1100 -636v266l789 445l-789 421v265z"/>
<glyph unicode="" d="M1076 0h-251l941 2400h249zM800 1533l-789 -421l789 -445v-266l-1100 636v150l1100 611v-265zM2700 1187v-150l-1100 -636v172l48 121l741 418l-478 255l83 212z"/>
<glyph unicode="" d="M300 2400h1800q124 0 212 -88t88 -212v-1800q0 -124 -88 -212t-212 -88h-1800q-124 0 -212 88t-88 212v1800q0 124 88 212t212 88zM200 2200v-300h2000v300h-2000zM200 1700v-300h600v300h-600zM900 1700v-300h600v300h-600zM1600 1700v-300h600v300h-600zM200 1300v-300 h600v300h-600zM900 1300v-300h600v300h-600zM1600 1300v-300h600v300h-600zM200 900v-300h600v300h-600zM900 900v-300h600v300h-600zM1600 900v-300h600v300h-600zM200 500v-300h600v300h-600zM900 500v-300h600v300h-600zM1600 500v-300h600v300h-600z"/>
<glyph unicode="" d="M2400 1600h-200l-150 -150l-650 650l-998 -702l-202 202h-200l1200 1200zM700 900l-700 -700v1400zM2400 200l-700 700l700 700v-1400zM2400 0h-2400l800 800h800z"/>
<glyph unicode="" d="M2400 1600h-200l-700 -700h-600l-700 700h-200l1200 1200zM700 900l-700 -700v1400zM2400 200l-700 700l700 700v-1400zM2400 0h-2400l800 800h800z"/>
<glyph unicode="" d="M2400 1600h-200l-700 -700h-600l-700 700h-200l1200 1200zM1356 2300h-311q-45 0 -45 -40v-460h-283q-10 0 -13.5 -11.5t3.5 -20.5l479 -569q7 -10 16.5 -11t16.5 8l477 573q7 9 3.5 20t-14.5 11h-285v460q0 40 -44 40zM700 900l-700 -700v1400zM2400 200l-700 700 l700 700v-1400zM2400 0h-2400l800 800h800z"/>
<glyph unicode="" d="M2400 1600h-200l-700 -700h-600l-700 700h-200l1200 1200zM1182 2304l-476 -574q-7 -8 -3.5 -19t13.5 -11h284v-460q0 -40 45 -40h311q44 0 44 40v460h284q11 0 14 11.5t-4 20.5l-479 569q-7 9 -16.5 10.5t-16.5 -7.5zM700 900l-700 -700v1400zM2400 200l-700 700 l700 700v-1400zM2400 0h-2400l800 800h800z"/>
<glyph unicode="" d="M2400 2300q102 0 194.5 -39.5t159.5 -106.5t106.5 -159.5t39.5 -194.5t-39.5 -194.5t-106.5 -159.5t-159.5 -106.5t-194.5 -39.5q-104 0 -194.5 33.5t-159 95.5t-107.5 158t-39 213q0 109 39.5 203.5t107 159t159 101t194.5 36.5zM2450 2100h-100q-21 0 -35.5 -14.5 t-14.5 -35.5v-150h-150q-21 0 -35.5 -14.5t-14.5 -35.5v-100q0 -21 14.5 -35.5t35.5 -14.5h150v-150q0 -21 14.5 -35.5t35.5 -14.5h100q21 0 35.5 14.5t14.5 35.5v150h150q21 0 35.5 14.5t14.5 35.5v100q0 21 -14.5 35.5t-35.5 14.5h-150v150q0 21 -14.5 35.5t-35.5 14.5z M0 1600h1724q32 -130 104.5 -230t177.5 -165l-806 -805zM600 800l-600 -600v1200zM1800 800l342 342q122 -42 258 -42v-900zM2400 0h-2400l700 700l500 -500l500 500z"/>
<glyph unicode="" d="M2400 2300q101 0 194 -42.5t160 -113.5t106.5 -166.5t39.5 -197.5q0 -101 -39.5 -191t-106.5 -153t-159.5 -99.5t-194.5 -36.5q-105 0 -195 32.5t-158.5 93.5t-107.5 157.5t-39 216.5t39 216.5t107.5 157.5t158.5 93.5t195 32.5zM2650 1900h-500q-21 0 -35.5 -14.5 t-14.5 -35.5v-100q0 -21 14.5 -35.5t35.5 -14.5h500q21 0 35.5 14.5t14.5 35.5v100q0 21 -14.5 35.5t-35.5 14.5zM0 1600h1724q32 -130 104.5 -230t177.5 -165l-806 -805zM600 800l-600 -600v1200zM1800 800l342 342q122 -42 258 -42v-900zM2400 0h-2400l700 700l500 -500 l500 500z"/>
<glyph unicode="" d="M2404.5 2293q100.5 0 192.5 -39t158 -105.5t105.5 -158t39.5 -192.5t-39.5 -192.5t-105.5 -158t-158 -105.5t-192.5 -39t-192 39t-158 105.5t-106 158.5t-39.5 192.5t39.5 192t106 158t158 105.5t192 39zM2405 2170q-101 0 -186.5 -50t-135.5 -135.5t-50 -186.5 q0 -107 58 -198l512 512q-91 58 -198 58zM2719 1996l-512 -512q91 -57 198 -57q100 0 186 49.5t135.5 135t49.5 186.5q0 107 -57 198zM0 1600h1724q32 -130 104.5 -230t177.5 -165l-806 -805zM600 800l-600 -600v1200zM1800 800l342 342q122 -42 258 -42v-900zM2400 0h-2400 l700 700l500 -500l500 500z"/>
<glyph unicode="" d="M2100 2300h550q21 0 35.5 -14.5t14.5 -35.5v-300q0 -21 -13.5 -41t-32.5 -28l-454 -181v-250q0 -21 -14.5 -35.5t-35.5 -14.5t-35.5 14.5t-14.5 35.5v850zM1900 1600v-150q0 -70 36.5 -128.5t96.5 -91.5l-830 -830l-1200 1200h1897zM600 800l-600 -600v1200zM2400 200 l-600 600l407 407q69 16 119.5 66.5t66.5 119.5l7 7v-1200zM2403 0h-2400l700 700l500 -500l500 500z"/>
<glyph unicode="" d="M2242 2400h313q55 0 100 -44.5t45 -100.5v-255h81q6 0 12.5 -6t6.5 -12v-566q0 -6 -6 -11t-13 -5h-764q-6 0 -11.5 5t-5.5 11v566q0 6 5.5 12t11.5 6h83v255q0 56 43 100.5t99 44.5zM2554 2300h-311q-25 0 -34 -9.5t-9 -35.5v-255h400v255q0 25 -10.5 35t-35.5 10z M1800 1600v-184q0 -85 58.5 -146.5t143.5 -68.5l-802 -801l-1200 1200h1800zM600 800l-600 -600v1200zM2400 200l-600 600l400 400h200v-1000zM2400 0h-2400l700 700l500 -500l500 500z"/>
<glyph unicode="" d="M2340 2200h120q10 0 25 -7t15 -15v-187l111 122q6 7 9.5 7t9.5 -5l85 -82q11 -12 0 -23l-121 -110h186q7 0 13.5 -16t6.5 -26v-120q0 -10 -6 -24t-14 -14h-186l122 -112q6 -6 6.5 -9.5t-5.5 -10.5l-82 -84q-12 -12 -24 0l-111 121v-187q0 -7 -14.5 -12.5t-25.5 -5.5h-120 q-11 0 -25.5 5.5t-14.5 12.5v186l-111 -122q-6 -6 -9 -6t-9 5l-85 83q-12 12 0 24l121 112h-187q-7 0 -13.5 14t-6.5 24v120q0 10 6.5 26t13.5 16h187l-122 110q-7 6 -7 8.5t5 8.5l83 85q11 12 23 0l111 -120v186q0 8 15 15t25 7zM0 1600h1835q35 -98 100 -178t153 -134 l-888 -888zM600 800l-600 -600v1200zM1800 800l426 426q85 -26 174 -26v-1000zM2400 0h-2400l700 700l500 -500l500 500z"/>
<glyph unicode="" d="M442 2300h1516q22 0 41 -12t25 -32l373 -1137l3 -1069q0 -21 -14.5 -35.5t-35.5 -14.5h-2300q-21 0 -35.5 14.5t-14.5 35.5q2 1065 3 1069l373 1132q6 20 25.5 34.5t40.5 14.5zM594 2000l-303 -900h409l200 -500h600l200 500h410l-304 900h-1212z"/>
<glyph unicode="" d="M2200 2700q102 0 194.5 -39.5t159.5 -106.5t106.5 -159.5t39.5 -194.5t-39.5 -194.5t-106.5 -159.5t-159.5 -106.5t-194.5 -39.5q-104 0 -194.5 33.5t-159 95.5t-107.5 158t-39 213q0 109 39.5 203.5t107 159t159 101t194.5 36.5zM2500 2150v100q0 21 -14.5 35.5 t-35.5 14.5h-150v150q0 21 -14.5 35.5t-35.5 14.5h-100q-21 0 -35.5 -14.5t-14.5 -35.5v-150h-150q-21 0 -35.5 -14.5t-14.5 -35.5v-100q0 -21 14.5 -35.5t35.5 -14.5h150v-150q0 -21 14.5 -35.5t35.5 -14.5h100q21 0 35.5 14.5t14.5 35.5v150h150q21 0 35.5 14.5t14.5 35.5 zM2400 50q-2 1065 -3 1069l-125 381h-297l135 -400h-410l-200 -500h-600l-200 500h-409l303 900h906v300h-1058q-21 0 -40.5 -14.5t-25.5 -34.5l-373 -1132l-3 -1069q0 -21 14.5 -35.5t35.5 -14.5h2300q21 0 35.5 14.5t14.5 35.5z"/>
<glyph unicode="" d="M2200 2700q101 0 194 -42.5t160 -113.5t106.5 -166.5t39.5 -197.5q0 -101 -39.5 -191t-106.5 -153t-159.5 -99.5t-194.5 -36.5q-105 0 -195 32.5t-158.5 93.5t-107.5 157.5t-39 216.5t39 216.5t107.5 157.5t158.5 93.5t195 32.5zM2272 1500l125 -381l3 -1069 q0 -21 -14.5 -35.5t-35.5 -14.5h-2300q-21 0 -35.5 14.5t-14.5 35.5q2 1065 3 1069l373 1132q6 20 25.5 34.5t40.5 14.5h1058v-300h-906l-303 -900h409l200 -500h600l200 500h410l-135 400h297zM2500 2150v100q0 21 -14.5 35.5t-35.5 14.5h-500q-21 0 -35.5 -14.5 t-14.5 -35.5v-100q0 -21 14.5 -35.5t35.5 -14.5h500q21 0 35.5 14.5t14.5 35.5z"/>
<glyph unicode="" d="M2042 2800h313q55 0 100 -44.5t45 -100.5v-255h81q6 0 12.5 -6t6.5 -12v-566q0 -6 -6 -11t-13 -5h-764q-6 0 -11.5 5t-5.5 11v566q0 6 5.5 12t11.5 6h83v255q0 56 43 100.5t99 44.5zM2354 2700h-311q-25 0 -34 -9.5t-9 -35.5v-255h400v255q0 25 -10.5 35t-35.5 10z M1500 2000h-906l-303 -900h409l200 -500h600l200 500h410l-135 400h297l125 -381l3 -1069q0 -21 -14.5 -35.5t-35.5 -14.5h-2300q-21 0 -35.5 14.5t-14.5 35.5q2 1065 3 1069l373 1132q6 20 25.5 34.5t40.5 14.5h1058v-300z"/>
<glyph unicode="" d="M1050 2600h300q21 0 35.5 -14.5t14.5 -35.5v-650h285q11 0 14.5 -11t-3.5 -20l-477 -573q-6 -8 -14 -8q-11 0 -19 11l-479 569q-7 9 -3.5 20.5t13.5 11.5h283v650q0 21 14.5 35.5t35.5 14.5zM1500 2300h458q22 0 41 -12t25 -32l373 -1137l3 -1069q0 -21 -14.5 -35.5 t-35.5 -14.5h-2300q-21 0 -35.5 14.5t-14.5 35.5q2 1065 3 1069l373 1132q6 20 25.5 34.5t40.5 14.5h458v-300h-306l-303 -900h409l200 -500h600l200 500h410l-304 900h-306v300z"/>
<glyph unicode="" d="M1205 2591q7 0 14 -9l477 -562q6 -9 3 -14.5t-14 -5.5h-285v-674q0 -8 -3 -13t-6 -7.5t-12 -4t-13 -1.5h-16h-300h-16t-13 1.5t-12 4t-6 7.5t-3 13v674h-283q-11 0 -14 5.5t4 14.5l479 564q6 7 19 7zM1675 2300h283q22 0 41 -12t25 -32l373 -1137q0 -1 0.5 -3.5t0.5 -5 v-5v-4v-1.5h2v-1050q0 -21 -14.5 -35.5t-35.5 -14.5h-2300q-21 0 -35.5 14.5t-14.5 35.5v1050h2v4t0.5 8.5t0.5 6.5l373 1132q6 20 25.5 34.5t40.5 14.5h280l-222 -300h100l-309 -900h409l200 -500h600l200 500h410l-310 900h100z"/>
<glyph unicode="" d="M1195 2400q69 0 154 -11l79 -316q115 -30 217 -89l279 167q123 -95 217 -218l-167 -279q59 -102 90 -216l316 -79q10 -86 10 -154t-10 -154l-316 -79q-31 -115 -90 -217l168 -279q-96 -123 -218 -217l-279 167q-101 -59 -217 -90l-79 -315q-85 -11 -154 -11t-154 11 l-79 315q-115 31 -216 90l-279 -167q-123 94 -218 217l167 279q-59 102 -89 217l-316 79q-11 85 -11 154t11 154l316 79q30 114 89 216l-167 279q95 123 218 218l279 -167q102 58 216 89l79 316q86 11 154 11zM1195.5 1623q-113.5 0 -210 -56t-152.5 -152.5t-56 -210 t56 -209.5t152.5 -152t210 -56t209.5 56t152 152t56 209.5t-56 210t-152 152.5t-209.5 56z"/>
<glyph unicode="" d="M697 2389q68 0 154 -11l79 -316q115 -30 217 -89l278 167q123 -94 218 -218l-167 -278q59 -103 89 -217l316 -79q11 -85 11 -154t-11 -154l-316 -79q-30 -114 -89 -217l167 -278q-94 -123 -218 -218l-278 167q-102 -59 -217 -89l-79 -316q-83 -11 -154 -11t-154 11 l-79 316q-115 30 -217 89l-278 -167q-123 94 -218 218l167 278q-58 100 -90 217l-315 79q-11 79 -11 154t11 154l315 79q32 116 90 217l-167 278q95 124 218 218l278 -167q102 59 217 89l79 316q86 11 154 11zM696.5 1612q-113.5 0 -209.5 -56t-152 -152t-56 -210t56 -210 t152 -152t209.5 -56t210 56t152.5 152t56 210t-56 210t-152.5 152t-210 56zM2300 874q33 0 74 -5l38 -152l6 -1q48 -14 93 -39l5 -3l134 81q61 -48 104 -105l-80 -134l3 -5q25 -44 39 -93l1 -6l152 -38q5 -41 5 -73q0 -34 -5 -74l-152 -38l-1 -6q-14 -49 -39 -93l-3 -5 l80 -134q-49 -62 -104 -105l-134 81l-5 -3q-44 -25 -93 -39l-6 -2l-38 -151q-46 -5 -74 -5q-33 0 -74 5l-38 151l-5 2q-50 14 -94 39l-5 2l-133 -80q-61 47 -105 105l80 134l-3 5q-25 45 -38 93l-2 6l-151 38q-6 44 -6 74q0 33 6 73l151 38l2 6q13 48 38 93l3 5l-80 134 q47 60 105 105l133 -81l5 3q45 25 94 39l5 1l38 152q43 5 74 5zM2300 515q-89 0 -152 -63t-63 -151.5t63 -151.5t152 -63t152 63t63 151.5t-63 151.5t-152 63z"/>
<glyph unicode="" d="M88 2200h2224q37 0 62.5 -25.5t25.5 -62.5v-1825q0 -36 -25.5 -61.5t-62.5 -25.5h-2224q-37 0 -62.5 25.5t-25.5 61.5v1825q0 37 25.5 62.5t62.5 25.5zM200 2000v-1500l606 400q37 -14 96 -39t195.5 -90t219.5 -117q69 -44 66 -1q-3 50 -83 159q-92 126 -177 175 q-13 8 -24 13q44 44 135 144t159 178l69 78q4 4 11 10.5t28.5 24t43 30.5t51.5 24t57 11t57 -10.5t53.5 -25t43 -29t30.5 -25.5l10 -10l353 -358v958h-2000zM600 1819q90 0 154.5 -64.5t64.5 -154.5t-64.5 -154.5t-154.5 -64.5t-154.5 64.5t-64.5 154.5t64.5 154.5 t154.5 64.5z"/>
<glyph unicode="" d="M600 1000h100q41 0 70.5 -29.5t29.5 -70.5v-300q0 -41 -29.5 -70.5t-70.5 -29.5h-500q-41 0 -70.5 29.5t-29.5 70.5v300q0 41 29.5 70.5t70.5 29.5h100v1400h300v-1400zM1400 1500h100q41 0 70.5 -29.5t29.5 -70.5v-300q0 -41 -29.5 -70.5t-70.5 -29.5h-500 q-41 0 -70.5 29.5t-29.5 70.5v300q0 41 29.5 70.5t70.5 29.5h100v900h300v-900zM2200 2000h100q41 0 70.5 -29.5t29.5 -70.5v-300q0 -41 -29.5 -70.5t-70.5 -29.5h-500q-41 0 -70.5 29.5t-29.5 70.5v300q0 41 29.5 70.5t70.5 29.5h100v400h300v-400zM1800 1750v-50h500v50 h-500zM2200 0h-300v1400h300v-1400zM1000 1250v-50h500v50h-500zM1400 0h-300v900h300v-900zM200 750v-50h500v50h-500zM600 0h-300v400h300v-400z"/>
<glyph unicode="" d="M2042 2800h313q55 0 100 -44.5t45 -100.5v-255h81q6 0 12.5 -6t6.5 -12v-566q0 -6 -6 -11t-13 -5h-764q-6 0 -11.5 5t-5.5 11v566q0 6 5.5 12t11.5 6h83v255q0 56 43 100.5t99 44.5zM2354 2700h-311q-25 0 -34 -9.5t-9 -35.5v-255h400v255q0 25 -10.5 35t-35.5 10z M750 2200q204 0 376.5 -27t273 -73t100.5 -100v-300q0 -54 -100.5 -100.5t-273 -73t-376.5 -26.5t-376.5 26.5t-273 73t-100.5 100.5v300q0 54 100.5 100t273 73t376.5 27zM750 2114q-134 0 -228.5 -18.5t-94.5 -45.5t94.5 -46t228.5 -19t228.5 19t94.5 46t-94.5 45.5 t-228.5 18.5zM1488 1533q12 -18 12 -33v-300q0 -54 -100.5 -100.5t-273 -73t-376.5 -26.5t-376.5 26.5t-273 73t-100.5 100.5v300q0 15 12 33q58 -35 146.5 -61.5t170 -39.5t175.5 -21t147 -9.5t99 -1.5t99 1.5t147 9.5t175.5 21t170 39.5t146.5 61.5zM1488 1033 q12 -18 12 -33v-300q0 -54 -100.5 -100.5t-273 -73t-376.5 -26.5t-376.5 26.5t-273 73t-100.5 100.5v300q0 15 12 33q58 -35 146.5 -61.5t170 -39.5t175.5 -21t147 -9.5t99 -1.5t99 1.5t147 9.5t175.5 21t170 39.5t146.5 61.5zM1488 533q12 -18 12 -33v-300 q0 -54 -100.5 -100t-273 -73t-376.5 -27t-376.5 27t-273 73t-100.5 100v300q0 15 12 33q58 -35 146.5 -61.5t170.5 -39.5t175.5 -21t146.5 -9.5t99 -1.5t99 1.5t147 9.5t175.5 21t170 39.5t146.5 61.5z"/>
<glyph unicode="" d="M2200 2700q102 0 194.5 -39.5t159.5 -106.5t106.5 -159.5t39.5 -194.5t-39.5 -194.5t-106.5 -159.5t-159.5 -106.5t-194.5 -39.5q-104 0 -194.5 33.5t-159 95.5t-107.5 158t-39 213q0 109 39.5 203.5t107 159t159 101t194.5 36.5zM2250 2500h-100q-21 0 -35.5 -14.5 t-14.5 -35.5v-150h-150q-21 0 -35.5 -14.5t-14.5 -35.5v-100q0 -21 14.5 -35.5t35.5 -14.5h150v-150q0 -21 14.5 -35.5t35.5 -14.5h100q21 0 35.5 14.5t14.5 35.5v150h150q21 0 35.5 14.5t14.5 35.5v100q0 21 -14.5 35.5t-35.5 14.5h-150v150q0 21 -14.5 35.5t-35.5 14.5z M750 2200q204 0 376.5 -27t273 -73t100.5 -100v-300q0 -54 -100.5 -100.5t-273 -73t-376.5 -26.5t-376.5 26.5t-273 73t-100.5 100.5v300q0 54 100.5 100t273 73t376.5 27zM750 2114q-134 0 -228.5 -18.5t-94.5 -45.5t94.5 -46t228.5 -19t228.5 19t94.5 46t-94.5 45.5 t-228.5 18.5zM1488 1533q12 -18 12 -33v-300q0 -54 -100.5 -100.5t-273 -73t-376.5 -26.5t-376.5 26.5t-273 73t-100.5 100.5v300q0 15 12 33q58 -35 146.5 -61.5t170 -39.5t175.5 -21t147 -9.5t99 -1.5t99 1.5t147 9.5t175.5 21t170 39.5t146.5 61.5zM1488 1033 q12 -18 12 -33v-300q0 -54 -100.5 -100.5t-273 -73t-376.5 -26.5t-376.5 26.5t-273 73t-100.5 100.5v300q0 15 12 33q58 -35 146.5 -61.5t170 -39.5t175.5 -21t147 -9.5t99 -1.5t99 1.5t147 9.5t175.5 21t170 39.5t146.5 61.5zM1488 533q12 -18 12 -33v-300 q0 -54 -100.5 -100t-273 -73t-376.5 -27t-376.5 27t-273 73t-100.5 100v300q0 15 12 33q58 -35 146.5 -61.5t170.5 -39.5t175.5 -21t146.5 -9.5t99 -1.5t99 1.5t147 9.5t175.5 21t170 39.5t146.5 61.5z"/>
<glyph unicode="" d="M2200 2700q101 0 194 -42.5t160 -113.5t106.5 -166.5t39.5 -197.5q0 -101 -39.5 -191t-106.5 -153t-159.5 -99.5t-194.5 -36.5q-105 0 -195 32.5t-158.5 93.5t-107.5 157.5t-39 216.5t39 216.5t107.5 157.5t158.5 93.5t195 32.5zM2450 2300h-500q-21 0 -35.5 -14.5 t-14.5 -35.5v-100q0 -21 14.5 -35.5t35.5 -14.5h500q21 0 35.5 14.5t14.5 35.5v100q0 21 -14.5 35.5t-35.5 14.5zM750 2200q204 0 376.5 -27t273 -73t100.5 -100v-300q0 -54 -100.5 -100.5t-273 -73t-376.5 -26.5t-376.5 26.5t-273 73t-100.5 100.5v300q0 54 100.5 100 t273 73t376.5 27zM750 2114q-134 0 -228.5 -18.5t-94.5 -45.5t94.5 -46t228.5 -19t228.5 19t94.5 46t-94.5 45.5t-228.5 18.5zM1488 1533q12 -18 12 -33v-300q0 -54 -100.5 -100.5t-273 -73t-376.5 -26.5t-376.5 26.5t-273 73t-100.5 100.5v300q0 15 12 33 q58 -35 146.5 -61.5t170 -39.5t175.5 -21t147 -9.5t99 -1.5t99 1.5t147 9.5t175.5 21t170 39.5t146.5 61.5zM1488 1033q12 -18 12 -33v-300q0 -54 -100.5 -100.5t-273 -73t-376.5 -26.5t-376.5 26.5t-273 73t-100.5 100.5v300q0 15 12 33q58 -35 146.5 -61.5t170 -39.5 t175.5 -21t147 -9.5t99 -1.5t99 1.5t147 9.5t175.5 21t170 39.5t146.5 61.5zM1488 533q12 -18 12 -33v-300q0 -54 -100.5 -100t-273 -73t-376.5 -27t-376.5 27t-273 73t-100.5 100v300q0 15 12 33q58 -35 146.5 -61.5t170.5 -39.5t175.5 -21t146.5 -9.5t99 -1.5t99 1.5 t147 9.5t175.5 21t170 39.5t146.5 61.5z"/>
<glyph unicode="" d="M2104.5 2700q100.5 0 192.5 -39.5t158 -105.5t105.5 -158t39.5 -192.5t-39.5 -192t-105.5 -158t-158 -106t-192.5 -39.5t-192 39.5t-158 106t-106 158t-39.5 192t39.5 192.5t106 158t158 105.5t192 39.5zM2105 2576q-101 0 -186.5 -49.5t-135.5 -135.5t-50 -186 q0 -107 58 -199l512 512q-91 58 -198 58zM2419 2403l-512 -512q91 -58 198 -58q100 0 186 50t135.5 135.5t49.5 186.5q0 106 -57 198zM750 2200q204 0 376.5 -27t273 -73t100.5 -100v-300q0 -54 -100.5 -100.5t-273 -73t-376.5 -26.5t-376.5 26.5t-273 73t-100.5 100.5v300 q0 54 100.5 100t273 73t376.5 27zM750 2114q-134 0 -228.5 -18.5t-94.5 -45.5t94.5 -46t228.5 -19t228.5 19t94.5 46t-94.5 45.5t-228.5 18.5zM1488 1533q12 -18 12 -33v-300q0 -54 -100.5 -100.5t-273 -73t-376.5 -26.5t-376.5 26.5t-273 73t-100.5 100.5v300q0 15 12 33 q58 -35 146.5 -61.5t170 -39.5t175.5 -21t147 -9.5t99 -1.5t99 1.5t147 9.5t175.5 21t170 39.5t146.5 61.5zM1488 1033q12 -18 12 -33v-300q0 -54 -100.5 -100.5t-273 -73t-376.5 -26.5t-376.5 26.5t-273 73t-100.5 100.5v300q0 15 12 33q58 -35 146.5 -61.5t170 -39.5 t175.5 -21t147 -9.5t99 -1.5t99 1.5t147 9.5t175.5 21t170 39.5t146.5 61.5zM1488 533q12 -18 12 -33v-300q0 -54 -100.5 -100t-273 -73t-376.5 -27t-376.5 27t-273 73t-100.5 100v300q0 15 12 33q58 -35 146.5 -61.5t170.5 -39.5t175.5 -21t146.5 -9.5t99 -1.5t99 1.5 t147 9.5t175.5 21t170 39.5t146.5 61.5z"/>
<glyph unicode="" d="M400 2200h500q41 0 80 -28t52 -67l35 -105h933q41 0 70.5 -29.5t29.5 -70.5v-300h-1550q-27 0 -54.5 -15.5t-43.5 -53.5q-12 -25 -124.5 -305.5t-220.5 -548.5l-107 -268v1491q0 41 29.5 70.5t70.5 29.5h133l35 105q13 39 52 67t80 28zM700 1500h2200q41 0 59.5 -27.5 t3.5 -65.5l-526 -1314q-15 -38 -55.5 -65.5t-81.5 -27.5h-2200q-41 0 -59.5 27.5t-3.5 65.5l526 1314q15 38 55.5 65.5t81.5 27.5z"/>
</font>
</defs>
</svg>
